Начать новую тему Ответить на тему
Статистика раздачи
Размер: 293.01 МБ | Добавлен: 26 июн 2020, 20:45 | Скачали: 0
Сидеров: 0  [0 байт/сек]    Личеров: 0  [0 байт/сек]
Пред. тема | След. тема 

Автор
Сообщение

СообщениеДобавлено: 26 июн 2020, 20:45 

Ответить с цитатой 

Second Disease - Flame The Dark True
Жанр: Industrial, Electro
Страна-производитель диска: USA
Год издания диска: 1997
Издатель (лейбл): Cleopatra
Номер по каталогу: CLP 9954-2
Аудио кодек: FLAC (*.flac)
Тип рипа: tracks+.cue
Битрейт аудио: lossless
Продолжительность: 59:44.133
Источник (релизер): What.CD
Наличие сканов в содержимом раздачи: нет
Треклист:
1 Re-Birth 3:22
2 Twillight 3:31
3 Black Oder 4:42
4 A Holy Place 4:02
5 Cross I 1:46
6 The Tale Of Vengance 3:54
7 Cross II 1:05
8 What Is Going On Now? 4:27
9 Sweet Tribute 4:20
10 Cross III 1:35
11 Stormworld 4:15
12 F.T.D.T. 5:55
13 Sacrifice 4:19
14 Cross IV 0:59
15 God's Work 3:47
16 Cross V 1:08
17 Neutral Deception 4:06
18 Cross VI 1:35
Лучшая ваша благодарность за раздачу - отзывы об альбоме!
Код:
Exact Audio Copy V0.99 prebeta 4 from 23. January 2008
EAC extraction logfile from 17. November 2008, 10:51
Second Disease / Flame The Dark True
Used drive  : TSSTcorpDVD+-RW TS-H653B   Adapter: 1  ID: 0
Read mode               : Secure
Utilize accurate stream : Yes
Defeat audio cache      : Yes
Make use of C2 pointers : No
Read offset correction                      : 6
Overread into Lead-In and Lead-Out          : No
Fill up missing offset samples with silence : Yes
Delete leading and trailing silent blocks   : No
Null samples used in CRC calculations       : Yes
Used interface                              : Installed external ASPI interface
Gap handling                                : Appended to previous track
Used output format              : User Defined Encoder
Selected bitrate                : 192 kBit/s
Quality                         : High
Add ID3 tag                     : No
Command line compressor         : C:\Program Files\Exact Audio Copy\Flac\flac.exe
Additional command line options : -V -8 -T "artist=%a" -T "title=%t" -T "album=%g" -T "date=%y" -T "tracknumber=%n" -T "genre=%m" %s
TOC of the extracted CD
     Track |   Start  |  Length  | Start sector | End sector
    ---------------------------------------------------------
        1  |  0:01.00 |  3:25.04 |        75    |    15453
        2  |  3:26.04 |  3:33.57 |     15454    |    31485
        3  |  6:59.61 |  4:44.60 |     31486    |    52845
        4  | 11:44.46 |  4:06.38 |     52846    |    71333
        5  | 15:51.09 |  1:49.69 |     71334    |    79577
        6  | 17:41.03 |  3:57.02 |     79578    |    97354
        7  | 21:38.05 |  1:08.33 |     97355    |   102487
        8  | 22:46.38 |  4:30.48 |    102488    |   122785
        9  | 27:17.11 |  4:23.26 |    122786    |   142536
       10  | 31:40.37 |  1:38.21 |    142537    |   149907
       11  | 33:18.58 |  4:17.31 |    149908    |   169213
       12  | 37:36.14 |  5:57.74 |    169214    |   196062
       13  | 43:34.13 |  4:22.21 |    196063    |   215733
       14  | 47:56.34 |  1:01.49 |    215734    |   220357
       15  | 48:58.08 |  3:50.27 |    220358    |   237634
       16  | 52:48.35 |  1:11.24 |    237635    |   242983
       17  | 53:59.59 |  4:10.07 |    242984    |   261740
       18  | 58:09.66 |  1:35.19 |    261741    |   268884
Track  1
     Filename F:\A\Second Disease - Flame The Dark True [flac]\01 - Re-Birth.wav
     Pre-gap length  0:00:03.00
     Peak level 100.0 %
     Track quality 100.0 %
     Test CRC D689B1F3
     Copy CRC D689B1F3
     Track not present in AccurateRip database
     Copy OK
Track  2
     Filename F:\A\Second Disease - Flame The Dark True [flac]\02 - Twilight.wav
     Pre-gap length  0:00:02.60
     Peak level 87.1 %
     Track quality 100.0 %
     Test CRC 77FA30BC
     Copy CRC 77FA30BC
     Track not present in AccurateRip database
     Copy OK
Track  3
     Filename F:\A\Second Disease - Flame The Dark True [flac]\03 - Black Order.wav
     Pre-gap length  0:00:02.58
     Peak level 100.0 %
     Track quality 100.0 %
     Test CRC E2A240DE
     Copy CRC E2A240DE
     Track not present in AccurateRip database
     Copy OK
Track  4
     Filename F:\A\Second Disease - Flame The Dark True [flac]\04 - A Holy Place.wav
     Pre-gap length  0:00:02.60
     Peak level 98.8 %
     Track quality 100.0 %
     Test CRC FB29C0A7
     Copy CRC FB29C0A7
     Track not present in AccurateRip database
     Copy OK
Track  5
     Filename F:\A\Second Disease - Flame The Dark True [flac]\05 - Cross 1.wav
     Pre-gap length  0:00:02.52
     Peak level 98.9 %
     Track quality 99.9 %
     Test CRC C78D82CC
     Copy CRC C78D82CC
     Track not present in AccurateRip database
     Copy OK
Track  6
     Filename F:\A\Second Disease - Flame The Dark True [flac]\06 - The Tale Of Vengence.wav
     Pre-gap length  0:00:02.56
     Peak level 100.0 %
     Track quality 100.0 %
     Test CRC D89286D6
     Copy CRC D89286D6
     Track not present in AccurateRip database
     Copy OK
Track  7
     Filename F:\A\Second Disease - Flame The Dark True [flac]\07 - Cross 2.wav
     Pre-gap length  0:00:02.60
     Peak level 99.0 %
     Track quality 100.0 %
     Test CRC C056867F
     Copy CRC C056867F
     Track not present in AccurateRip database
     Copy OK
Track  8
     Filename F:\A\Second Disease - Flame The Dark True [flac]\08 - What Is Going On Now .wav
     Pre-gap length  0:00:02.60
     Peak level 99.5 %
     Track quality 99.9 %
     Test CRC CBAF298C
     Copy CRC CBAF298C
     Track not present in AccurateRip database
     Copy OK
Track  9
     Filename F:\A\Second Disease - Flame The Dark True [flac]\09 - Sweet Tribute.wav
     Pre-gap length  0:00:02.60
     Peak level 100.0 %
     Track quality 99.9 %
     Test CRC 4B7DDF41
     Copy CRC 4B7DDF41
     Track not present in AccurateRip database
     Copy OK
Track 10
     Filename F:\A\Second Disease - Flame The Dark True [flac]\10 - Cross 3.wav
     Pre-gap length  0:00:02.53
     Peak level 100.0 %
     Track quality 99.8 %
     Test CRC 6430D8EC
     Copy CRC 6430D8EC
     Track not present in AccurateRip database
     Copy OK
Track 11
     Filename F:\A\Second Disease - Flame The Dark True [flac]\11 - Stormworld.wav
     Pre-gap length  0:00:02.54
     Peak level 100.0 %
     Track quality 100.0 %
     Test CRC 5A6201CD
     Copy CRC 5A6201CD
     Track not present in AccurateRip database
     Copy OK
Track 12
     Filename F:\A\Second Disease - Flame The Dark True [flac]\12 - F.T.D.T..wav
     Pre-gap length  0:00:02.54
     Peak level 100.0 %
     Track quality 100.0 %
     Test CRC BD1A7DD0
     Copy CRC BD1A7DD0
     Track not present in AccurateRip database
     Copy OK
Track 13
     Filename F:\A\Second Disease - Flame The Dark True [flac]\13 - Sacrifice.wav
     Pre-gap length  0:00:02.57
     Peak level 99.9 %
     Track quality 100.0 %
     Test CRC 64E0A627
     Copy CRC 64E0A627
     Track not present in AccurateRip database
     Copy OK
Track 14
     Filename F:\A\Second Disease - Flame The Dark True [flac]\14 - Cross 4.wav
     Pre-gap length  0:00:02.60
     Peak level 100.0 %
     Track quality 100.0 %
     Test CRC DC2E0C62
     Copy CRC DC2E0C62
     Track not present in AccurateRip database
     Copy OK
Track 15
     Filename F:\A\Second Disease - Flame The Dark True [flac]\15 - God's Work.wav
     Pre-gap length  0:00:02.56
     Peak level 100.0 %
     Track quality 100.0 %
     Test CRC 9D411A89
     Copy CRC 9D411A89
     Track not present in AccurateRip database
     Copy OK
Track 16
     Filename F:\A\Second Disease - Flame The Dark True [flac]\16 - Cross 5.wav
     Pre-gap length  0:00:02.57
     Peak level 99.2 %
     Track quality 100.0 %
     Test CRC 7DE262B6
     Copy CRC 7DE262B6
     Track not present in AccurateRip database
     Copy OK
Track 17
     Filename F:\A\Second Disease - Flame The Dark True [flac]\17 - Neural Deception.wav
     Pre-gap length  0:00:02.60
     Peak level 100.0 %
     Track quality 100.0 %
     Test CRC 6F3B9F6C
     Copy CRC 6F3B9F6C
     Track not present in AccurateRip database
     Copy OK
Track 18
     Filename F:\A\Second Disease - Flame The Dark True [flac]\18 - Cross 6.wav
     Pre-gap length  0:00:02.58
     Peak level 100.0 %
     Track quality 100.0 %
     Test CRC 98AE2047
     Copy CRC 98AE2047
     Track not present in AccurateRip database
     Copy OK
None of the tracks are present in the AccurateRip database
No errors occurred
End of status report
Код:
REM GENRE Industrial
REM DATE 1997
REM DISCID E10E0012
REM COMMENT "ExactAudioCopy v0.99pb4"
PERFORMER "Second Disease"
TITLE "Flame The Dark True"
FILE "01 - Re-Birth.wav" WAVE
  TRACK 01 AUDIO
    TITLE "Re-Birth"
    PERFORMER "Second Disease"
    FLAGS DCP
    PREGAP 00:01:00
    INDEX 01 00:00:00
  TRACK 02 AUDIO
    TITLE "Twilight"
    PERFORMER "Second Disease"
    FLAGS DCP
    INDEX 00 03:22:34
FILE "02 - Twilight.wav" WAVE
    INDEX 01 00:00:00
  TRACK 03 AUDIO
    TITLE "Black Order"
    PERFORMER "Second Disease"
    FLAGS DCP
    INDEX 00 03:31:13
FILE "03 - Black Order.wav" WAVE
    INDEX 01 00:00:00
  TRACK 04 AUDIO
    TITLE "A Holy Place"
    PERFORMER "Second Disease"
    FLAGS DCP
    INDEX 00 04:42:15
FILE "04 - A Holy Place.wav" WAVE
    INDEX 01 00:00:00
  TRACK 05 AUDIO
    TITLE "Cross 1"
    PERFORMER "Second Disease"
    FLAGS DCP
    INDEX 00 04:03:74
FILE "05 - Cross 1.wav" WAVE
    INDEX 01 00:00:00
  TRACK 06 AUDIO
    TITLE "The Tale Of Vengence"
    PERFORMER "Second Disease"
    FLAGS DCP
    INDEX 00 01:47:27
FILE "06 - The Tale Of Vengence.wav" WAVE
    INDEX 01 00:00:00
  TRACK 07 AUDIO
    TITLE "Cross 2"
    PERFORMER "Second Disease"
    FLAGS DCP
    INDEX 00 03:54:32
FILE "07 - Cross 2.wav" WAVE
    INDEX 01 00:00:00
  TRACK 08 AUDIO
    TITLE "What Is Going On Now?"
    PERFORMER "Second Disease"
    FLAGS DCP
    INDEX 00 01:05:63
FILE "08 - What Is Going On Now .wav" WAVE
    INDEX 01 00:00:00
  TRACK 09 AUDIO
    TITLE "Sweet Tribute"
    PERFORMER "Second Disease"
    FLAGS DCP
    INDEX 00 04:28:03
FILE "09 - Sweet Tribute.wav" WAVE
    INDEX 01 00:00:00
  TRACK 10 AUDIO
    TITLE "Cross 3"
    PERFORMER "Second Disease"
    FLAGS DCP
    INDEX 00 04:20:61
FILE "10 - Cross 3.wav" WAVE
    INDEX 01 00:00:00
  TRACK 11 AUDIO
    TITLE "Stormworld"
    PERFORMER "Second Disease"
    FLAGS DCP
    INDEX 00 01:35:55
FILE "11 - Stormworld.wav" WAVE
    INDEX 01 00:00:00
  TRACK 12 AUDIO
    TITLE "F.T.D.T."
    PERFORMER "Second Disease"
    FLAGS DCP
    INDEX 00 04:14:65
FILE "12 - F.T.D.T..wav" WAVE
    INDEX 01 00:00:00
  TRACK 13 AUDIO
    TITLE "Sacrifice"
    PERFORMER "Second Disease"
    FLAGS DCP
    INDEX 00 05:55:31
FILE "13 - Sacrifice.wav" WAVE
    INDEX 01 00:00:00
  TRACK 14 AUDIO
    TITLE "Cross 4"
    PERFORMER "Second Disease"
    FLAGS DCP
    INDEX 00 04:19:51
FILE "14 - Cross 4.wav" WAVE
    INDEX 01 00:00:00
  TRACK 15 AUDIO
    TITLE "God's Work"
    PERFORMER "Second Disease"
    FLAGS DCP
    INDEX 00 00:59:07
FILE "15 - God's Work.wav" WAVE
    INDEX 01 00:00:00
  TRACK 16 AUDIO
    TITLE "Cross 5"
    PERFORMER "Second Disease"
    FLAGS DCP
    INDEX 00 03:47:59
FILE "16 - Cross 5.wav" WAVE
    INDEX 01 00:00:00
  TRACK 17 AUDIO
    TITLE "Neural Deception"
    PERFORMER "Second Disease"
    FLAGS DCP
    INDEX 00 01:08:54
FILE "17 - Neural Deception.wav" WAVE
    INDEX 01 00:00:00
  TRACK 18 AUDIO
    TITLE "Cross 6"
    PERFORMER "Second Disease"
    FLAGS DCP
    INDEX 00 04:07:38
FILE "18 - Cross 6.wav" WAVE
    INDEX 01 00:00:00
Правила, инструкции, FAQ!!!
Торрент  Добавлен [26 июн 2020, 20:45] Скачать торрент Магнет ссылка
Скачать торрент
[ Размер 12.99 КБ / Просмотров 6 ]

Статус
Проверен 
 
Размер  293.01 МБ
Приватный: Нет (DHT включён)
.torrent скачан  0
 


     Отправить личное сообщение
   
Страница 1 из 1
Показать сообщения за:  Поле сортировки  
Начать новую тему Ответить на тему


Сейчас этот форум просматривают: нет зарегистрированных пользователей и гости: 0


Вы не можете начинать темы
Вы не можете отвечать на сообщения
Вы не можете редактировать свои сообщения
Вы не можете удалять свои сообщения
Вы не можете добавлять вложения

Перейти:  
cron