Начать новую тему Ответить на тему
Статистика раздачи
Размер: 189.13 МБ | Добавлен: 26 июн 2020, 20:25 | Скачали: 0
Сидеров: 0  [0 байт/сек]    Личеров: 0  [0 байт/сек]
Пред. тема | След. тема 

Автор
Сообщение

СообщениеДобавлено: 26 июн 2020, 20:25 

Ответить с цитатой 

Ringtailed Snorter - Sexual Child Abuse
Жанр: Industrial / Electro
Год выпуска диска: 1993
Аудио кодек: FLAC
Тип рипа: image+.cue
Битрейт аудио: lossless
Продолжительность: 35:17.627
Трэклист:
1 Absolute Void (4:31)
2 The Cold Room (4:13)
3 Deal In Sex (4:07)
4 In My Head (4:10)
5 Deprivation (3:54)
6 Childlike (5:07)
7 Again (5:12)
8 I Come To You (4:00)
Доп. информация:
Ringtailed Snorter a solo-project by André Schemchta (X Marks the Pedwalk), the first song of which was written as a tribute to a friend who had died. Ringtailed Snorter differs from X Marks the Pedwalk in its use of "clean structures" and "minimal soundscapes to leave more [space in] the minds of the audience."
by Wikipedia®
Exact Audio Copy V0.99 prebeta 4 from 23. January 2008
EAC extraction logfile from 14. March 2009, 22:22
Ringtailed Snorter / Sexual Child Abuse
Used drive : Optiarc DVD RW AD-7203A Adapter: 1 ID: 0
Read mode : Secure
Utilize accurate stream : Yes
Defeat audio cache : Yes
Make use of C2 pointers : No
Read offset correction : 48
Overread into Lead-In and Lead-Out : No
Fill up missing offset samples with silence : Yes
Delete leading and trailing silent blocks : No
Null samples used in CRC calculations : No
Used interface : Installed external ASPI interface
Used output format : Internal WAV Routines
Sample format : 44.100 Hz; 16 Bit; Stereo
TOC of the extracted CD
Track | Start | Length | Start sector | End sector
---------------------------------------------------------
1 | 0:00.00 | 4:31.62 | 0 | 20386
2 | 4:31.62 | 4:13.38 | 20387 | 39399
3 | 8:45.25 | 4:07.12 | 39400 | 57936
4 | 12:52.37 | 4:10.63 | 57937 | 76749
5 | 17:03.25 | 3:54.37 | 76750 | 94336
6 | 20:57.62 | 5:07.00 | 94337 | 117361
7 | 26:04.62 | 5:12.13 | 117362 | 140774
8 | 31:17.00 | 4:00.47 | 140775 | 158821
Range status and errors
Selected range
Filename D:\Music\Ringtailed Snorter\1993 Sexual Child Abuse\Ringtailed Snorter - Sexual Child Abuse.wav
Peak level 98.9 %
Range quality 100.0 %
Copy CRC 79448A6D
Copy OK
No errors occurred
AccurateRip summary
Track 1 not present in database
Track 2 not present in database
Track 3 not present in database
Track 4 not present in database
Track 5 not present in database
Track 6 not present in database
Track 7 not present in database
Track 8 not present in database
None of the tracks are present in the AccurateRip database
End of status report
AUDIOCHECKER v2.0 beta (build 457) - by Dester - opdester@freemail.hu
~~~~~~~~~~~~~~~~~~~~~~~~~~~~~~~~~~
-=== НЕ РЕДАКТИРУЙТЕ ЭТОТ ФАЙЛ! ===-
Путь: ...\1993 Sexual Child Abuse
1 -=- Ringtailed Snorter - Sexual Child Abuse.flac -=- CDDA (100%)
77744340
Правила, инструкции, FAQ!!!
Торрент  Добавлен [26 июн 2020, 20:25] Скачать торрент Магнет ссылка
Скачать торрент
[ Размер 15.6 КБ / Просмотров 5 ]

Статус
Проверен 
 
Размер  189.13 МБ
Приватный: Нет (DHT включён)
.torrent скачан  0
 


     Отправить личное сообщение
   
Страница 1 из 1
Показать сообщения за:  Поле сортировки  
Начать новую тему Ответить на тему


Сейчас этот форум просматривают: нет зарегистрированных пользователей и гости: 0


Вы не можете начинать темы
Вы не можете отвечать на сообщения
Вы не можете редактировать свои сообщения
Вы не можете удалять свои сообщения
Вы не можете добавлять вложения

Перейти:  
cron