Начать новую тему Ответить на тему
Статистика раздачи
Размер: 188.32 МБ | Добавлен: 26 июн 2020, 17:31 | Скачали: 0
Сидеров: 0  [0 байт/сек]    Личеров: 0  [0 байт/сек]
Пред. тема | След. тема 

Автор
Сообщение

СообщениеДобавлено: 26 июн 2020, 17:31 

Ответить с цитатой 

Project Pitchfork - Corps D'Amour
Жанр: Industrial, Electro
Год выпуска диска: 1995
Производитель диска: Germany
Аудио кодек: FLAC
Тип рипа: tracks
Битрейт аудио: lossless
Трэклист:
1 Bodies (5:07) (Guitar - Axel Ermes)
2 ... And Then There 'll Be A Light (4:00)
3 Crash (3:24)
4 Dependence (5:04)
5 Corps D'Amour (4:23)
6 Self Knowledge (4:40)
Доп. информация:
Код:
Exact Audio Copy V0.99 prebeta 4 from 23. January 2008
EAC extraction logfile from 20. March 2008, 17:29
Project Pitchfork / Corps d'Amour
Used drive : TSSTcorpCDDVDW SH-S203B Adapter: 2 ID: 2
Read mode : Secure
Utilize accurate stream : Yes
Defeat audio cache : Yes
Make use of C2 pointers : No
Read offset correction : 6
Overread into Lead-In and Lead-Out : No
Fill up missing offset samples with silence : Yes
Delete leading and trailing silent blocks : No
Null samples used in CRC calculations : No
Used interface : Native Win32 interface for Win NT & 2000
Gap handling : Appended to previous track
Used output format : User Defined Encoder
Selected bitrate : 128 kBit/s
Quality : High
Add ID3 tag : No
Command line compressor : C:\Program Files\Exact Audio Copy\flac.exe
Additional command line options : -8 -A tukey(0.25) -A gauss(0.1875) -b 4096 -V -T "artist=%a" -T "title=%t" -T "album=%g" -T "date=%y" -T "tracknumber=%n" -T "genre=%m" %s --sector-align
TOC of the extracted CD
Track | Start | Length | Start sector | End sector
---------------------------------------------------------
1 | 0:00.00 | 5:07.31 | 0 | 23055
2 | 5:07.31 | 4:00.71 | 23056 | 41126
3 | 9:08.27 | 3:24.27 | 41127 | 56453
4 | 12:32.54 | 5:04.05 | 56454 | 79258
5 | 17:36.59 | 4:23.74 | 79259 | 99057
6 | 22:00.58 | 4:40.34 | 99058 | 120091
Track 1
Filename C:\Documents and Settings\jay\Desktop\waffles\Project Pitchfork - Corps d'Amour (1995)\01 - Project Pitchfork - Bodies.wav
Pre-gap length 0:00:02.00
Peak level 98.8 %
Track quality 100.0 %
Test CRC 05AF7AC8
Copy CRC 05AF7AC8
Accurately ripped (confidence 4) [E7D04814]
Copy OK
Track 2
Filename C:\Documents and Settings\jay\Desktop\waffles\Project Pitchfork - Corps d'Amour (1995)\02 - Project Pitchfork - ...And Then There'll Be A Light.wav
Pre-gap length 0:00:01.70
Peak level 98.7 %
Track quality 100.0 %
Test CRC 0464BE05
Copy CRC 0464BE05
Accurately ripped (confidence 4) [55D3AC02]
Copy OK
Track 3
Filename C:\Documents and Settings\jay\Desktop\waffles\Project Pitchfork - Corps d'Amour (1995)\03 - Project Pitchfork - Crash.wav
Pre-gap length 0:00:01.74
Peak level 98.0 %
Track quality 100.0 %
Test CRC 272810D8
Copy CRC 272810D8
Accurately ripped (confidence 4) [B553DC90]
Copy OK
Track 4
Filename C:\Documents and Settings\jay\Desktop\waffles\Project Pitchfork - Corps d'Amour (1995)\04 - Project Pitchfork - Dependence.wav
Pre-gap length 0:00:02.00
Peak level 98.8 %
Track quality 100.0 %
Test CRC 18ACAE71
Copy CRC 18ACAE71
Accurately ripped (confidence 4) [667A8B75]
Copy OK
Track 5
Filename C:\Documents and Settings\jay\Desktop\waffles\Project Pitchfork - Corps d'Amour (1995)\05 - Project Pitchfork - Corps d'Amour.wav
Pre-gap length 0:00:01.74
Peak level 100.0 %
Track quality 99.9 %
Test CRC C8E7A180
Copy CRC C8E7A180
Accurately ripped (confidence 4) [741FCEC2]
Copy OK
Track 6
Filename C:\Documents and Settings\jay\Desktop\waffles\Project Pitchfork - Corps d'Amour (1995)\06 - Project Pitchfork - Self-Knowledge.wav
Pre-gap length 0:00:01.71
Peak level 98.9 %
Track quality 100.0 %
Test CRC BD53B006
Copy CRC BD53B006
Accurately ripped (confidence 4) [0E3D15BE]
Copy OK
All tracks accurately ripped
No errors occurred
End of status report
Правила, инструкции, FAQ!!!
Торрент  Добавлен [26 июн 2020, 17:31] Скачать торрент Магнет ссылка
Скачать торрент
[ Размер 15.63 КБ / Просмотров 9 ]

Статус
Проверен 
 
Размер  188.32 МБ
Приватный: Нет (DHT включён)
.torrent скачан  0
 


     Отправить личное сообщение
   
Страница 1 из 1
Показать сообщения за:  Поле сортировки  
Начать новую тему Ответить на тему


Сейчас этот форум просматривают: нет зарегистрированных пользователей и гости: 0


Вы не можете начинать темы
Вы не можете отвечать на сообщения
Вы не можете редактировать свои сообщения
Вы не можете удалять свои сообщения
Вы не можете добавлять вложения

Перейти:  
cron