Начать новую тему Ответить на тему
Статистика раздачи
Размер: 373.23 МБ | Добавлен: 26 июн 2020, 20:49 | Скачали: 0
Сидеров: 1  [0 байт/сек]    Личеров: 1  [0 байт/сек]
Пред. тема | След. тема 

Автор
Сообщение

СообщениеДобавлено: 26 июн 2020, 20:49 

Ответить с цитатой 

Penal Colony / Put Your Hands Down
Жанр: Industrial, Electro
Страна-производитель диска: USA
Год издания диска: 1994
Издатель (лейбл): Cleopatra records
Номер по каталогу: 10942
Страна: USA
Аудио кодек: FLAC (*.flac)
Тип рипа: image+.cue
Битрейт аудио: lossless
Продолжительность: 46:51
Источник (релизер): Original CD
Наличие сканов в содержимом раздачи: да
Треклист:
1 - Penal Colony - Hallidified (Burnt Ram)
2 - Penal Colony - Product
3 - Penal Colony - Blue 9
4 - Penal Colony - Combine
5 - Penal Colony - Drawn And Quartered
6 - Penal Colony - Reconciled
7 - Penal Colony - Organic
8 - Penal Colony - Paste
9 - Penal Colony - Gout
10 - Penal Colony - Scoma
11 - Penal Colony - Insemin
12 - Penal Colony - Among The Living
13 - Penal Colony - Warsaw
Код:
Exact Audio Copy V0.99 prebeta 4 from 23. January 2008
EAC extraction logfile from 21. October 2010, 19:41
Penal Colony / Put Your Hands Down
Used drive  : PIONEER DVD-RW  DVR-215D   Adapter: 0  ID: 0
Read mode               : Secure
Utilize accurate stream : Yes
Defeat audio cache      : Yes
Make use of C2 pointers : No
Read offset correction                      : 48
Overread into Lead-In and Lead-Out          : No
Fill up missing offset samples with silence : Yes
Delete leading and trailing silent blocks   : No
Null samples used in CRC calculations       : Yes
Used interface                              : Installed external ASPI interface
Used output format              : User Defined Encoder
Selected bitrate                : 1024 kBit/s
Quality                         : High
Add ID3 tag                     : No
Command line compressor         : C:\Program Files\Exact Audio Copy\Flac\flac.exe
Additional command line options : -8 -V -T "ARTIST=%a" -T "TITLE=%t" -T "ALBUM=%g" -T "DATE=%y" -T "TRACKNUMBER=%n" -T "GENRE=%m" -T "COMMENT=EAC FLAC -8" %s
TOC of the extracted CD
     Track |   Start  |  Length  | Start sector | End sector
    ---------------------------------------------------------
        1  |  0:00.00 |  4:15.30 |         0    |    19154
        2  |  4:15.30 |  3:29.23 |     19155    |    34852
        3  |  7:44.53 |  3:15.02 |     34853    |    49479
        4  | 10:59.55 |  4:20.03 |     49480    |    68982
        5  | 15:19.58 |  4:05.22 |     68983    |    87379
        6  | 19:25.05 |  4:29.25 |     87380    |   107579
        7  | 23:54.30 |  4:02.70 |    107580    |   125799
        8  | 27:57.25 |  3:27.15 |    125800    |   141339
        9  | 31:24.40 |  2:48.50 |    141340    |   153989
       10  | 34:13.15 |  3:34.63 |    153990    |   170102
       11  | 37:48.03 |  3:09.65 |    170103    |   184342
       12  | 40:57.68 |  3:07.57 |    184343    |   198424
       13  | 44:05.50 |  2:45.30 |    198425    |   210829
Range status and errors
Selected range
     Filename E:\Download\Penal Colony - Put Your Hands Down\Penal Colony - Put Your Hands Down.wav
     Peak level 100.0 %
     Range quality 100.0 %
     Test CRC 925B7F4A
     Copy CRC 925B7F4A
     Copy OK
No errors occurred
AccurateRip summary
Track  1  accurately ripped (confidence 13)  [CD8ED829]
Track  2  accurately ripped (confidence 13)  [4EAA4B24]
Track  3  accurately ripped (confidence 13)  [DD4042E1]
Track  4  accurately ripped (confidence 13)  [7F8F47F8]
Track  5  accurately ripped (confidence 13)  [45968065]
Track  6  accurately ripped (confidence 12)  [37BFF5AA]
Track  7  accurately ripped (confidence 12)  [835043D7]
Track  8  accurately ripped (confidence 12)  [5E4C41FD]
Track  9  accurately ripped (confidence 12)  [77027FE3]
Track 10  accurately ripped (confidence 13)  [987F3FFC]
Track 11  accurately ripped (confidence 13)  [EBEBFC0F]
Track 12  accurately ripped (confidence 13)  [6A93854F]
Track 13  accurately ripped (confidence 13)  [9EA9DFC4]
All tracks accurately ripped
End of status report
Доп. информация: Artwork By ( Cover Art ) - John Bergin
Artwork By ( Layout ) - Brian Mars
Bass, Backing Vocals - Chris Shinkus
Drum Programming, Programmed By, Sampler - Jason Hubbard
Edited By ( Digital ) - Brent Curtis
Engineer ( Assistant ) - Ken Jordan ( tracks: 7, 8, 12 )
Guitar, Backing Vocals - Andy Shaw
Lyrics By, Sampler, Vocals, Programmed By - D Madden*
Producer, Arranged By - Penal Colony
Producer, Engineer - Michael Hateley
Правила, инструкции, FAQ!!!
Торрент  Добавлен [26 июн 2020, 20:49] Скачать торрент Магнет ссылка
Скачать торрент
[ Размер 15.66 КБ / Просмотров 14 ]

Статус
Проверен 
 
Размер  373.23 МБ
Приватный: Нет (DHT включён)
.torrent скачан  0
 


     Отправить личное сообщение
   
Страница 1 из 1
Показать сообщения за:  Поле сортировки  
Начать новую тему Ответить на тему


Сейчас этот форум просматривают: нет зарегистрированных пользователей и гости: 0


Вы не можете начинать темы
Вы не можете отвечать на сообщения
Вы не можете редактировать свои сообщения
Вы не можете удалять свои сообщения
Вы не можете добавлять вложения

Перейти:  
cron