Начать новую тему Ответить на тему
Статистика раздачи
Размер: 356.42 МБ | Добавлен: 26 июн 2020, 17:01 | Скачали: 0
Сидеров: 0  [0 байт/сек]    Личеров: 0  [0 байт/сек]
Пред. тема | След. тема 

Автор
Сообщение

СообщениеДобавлено: 26 июн 2020, 17:01 

Ответить с цитатой 

Out Out / Nisus
Жанр: Industrial, Electro
Страна-производитель диска: US
Год издания диска: 1995
Издатель (лейбл): Metropolis
Номер по каталогу: MET 017
Страна: US
Аудио кодек: FLAC (*.flac)
Тип рипа: tracks+.cue
Битрейт аудио: lossless
Наличие сканов в содержимом раздачи: нет
Треклист:
1 Intro 0:46
2 Caustic Circle 5:44
3 No. 5 United 4:46
4 Pursue, Apprehend, Prosecute & Incarcerate 4:55
5 Duchess 4:48
6 Blacklist 3:58
7 Cold Water 6:32
8 Pulling Teeth Perhaps 4:04
9 E&E 5:01
10 Ethico 4:32
11 Nisus 4:14
Код:
EAC extraction logfile from 29. March 2008, 13:40 for CD
Out Out / Nisus
Used drive  : SONY    DVD RW AW-Q170A   Adapter: 0  ID: 0
Read mode   : Secure with NO C2, accurate stream, disable cache
Read offset correction : 48
Overread into Lead-In and Lead-Out : No
Used output format : C:\Program Files\flac-1.1.4-win\bin\flac.exe   (User Defined Encoder)
                     128 kBit/s
                     Additional command line options : -8 -A tukey(0.25) -A gauss(0.1875) -b 4096 -V -T "artist=%a" -T "title=%t" -T "album=%g" -T "date=%y" -T "tracknumber=%n" -T "genre=%m" %s --sector-align
Other options      :
    Fill up missing offset samples with silence : Yes
    Delete leading and trailing silent blocks : No
    Native Win32 interface for Win NT & 2000
Track  1
     Filename Y:\Nisus\01 - Intro.wav
     Pre-gap length  0:00:02.00
     Peak level 3.1 %
     Track quality 100.0 %
     Test CRC 588C7186
     Copy CRC 588C7186
     Copy OK
Track  2
     Filename Y:\Nisus\02 - Caustic Circle.wav
     Peak level 100.0 %
     Track quality 100.0 %
     Test CRC CD145735
     Copy CRC CD145735
     Copy OK
Track  3
     Filename Y:\Nisus\03 - No. 5 United.wav
     Peak level 100.0 %
     Track quality 100.0 %
     Test CRC 72546821
     Copy CRC 72546821
     Copy OK
Track  4
     Filename Y:\Nisus\04 - Pursue, Apprehend, Prosecute & Incarcerate.wav
     Peak level 100.0 %
     Track quality 100.0 %
     Test CRC 4C64C631
     Copy CRC 4C64C631
     Copy OK
Track  5
     Filename Y:\Nisus\05 - Duchess.wav
     Peak level 100.0 %
     Track quality 99.9 %
     Test CRC 32FE2701
     Copy CRC 32FE2701
     Copy OK
Track  6
     Filename Y:\Nisus\06 - Blacklist.wav
     Peak level 100.0 %
     Track quality 100.0 %
     Test CRC 0B4769BD
     Copy CRC 0B4769BD
     Copy OK
Track  7
     Filename Y:\Nisus\07 - Cold Water.wav
     Peak level 100.0 %
     Track quality 100.0 %
     Test CRC A3467C82
     Copy CRC A3467C82
     Copy OK
Track  8
     Filename Y:\Nisus\08 - Pulling Teeth Perhaps.wav
     Peak level 100.0 %
     Track quality 100.0 %
     Test CRC F7406988
     Copy CRC F7406988
     Copy OK
Track  9
     Filename Y:\Nisus\09 - E&E.wav
     Pre-gap length  0:00:00.01
     Peak level 100.0 %
     Track quality 100.0 %
     Test CRC 2D2A164A
     Copy CRC 2D2A164A
     Copy OK
Track 10
     Filename Y:\Nisus\10 - Ethico.wav
     Peak level 100.0 %
     Track quality 100.0 %
     Test CRC E0EF0EDB
     Copy CRC E0EF0EDB
     Copy OK
Track 11
     Filename Y:\Nisus\11 - Nisus.wav
     Peak level 100.0 %
     Track quality 99.9 %
     Test CRC 8B0D1D6C
     Copy CRC 8B0D1D6C
     Copy OK
No errors occured
End of status report
Код:
REM GENRE Industrial
REM DATE 1995
REM DISCID 9D0B9E0B
REM COMMENT "ExactAudioCopy v0.95b4"
PERFORMER "Out Out"
TITLE "Nisus"
FILE "01 - Intro.wav" WAVE
  TRACK 01 AUDIO
    TITLE "Intro"
    PERFORMER "Out Out"
    INDEX 01 00:00:00
FILE "02 - Caustic Circle.wav" WAVE
  TRACK 02 AUDIO
    TITLE "Caustic Circle"
    PERFORMER "Out Out"
    INDEX 01 00:00:00
FILE "03 - No. 5 United.wav" WAVE
  TRACK 03 AUDIO
    TITLE "No. 5 United"
    PERFORMER "Out Out"
    INDEX 01 00:00:00
FILE "04 - Pursue, Apprehend, Prosecute & Incarcerate.wav" WAVE
  TRACK 04 AUDIO
    TITLE "Pursue, Apprehend, Prosecute & Incarcerate"
    PERFORMER "Out Out"
    INDEX 01 00:00:00
FILE "05 - Duchess.wav" WAVE
  TRACK 05 AUDIO
    TITLE "Duchess"
    PERFORMER "Out Out"
    INDEX 01 00:00:00
FILE "06 - Blacklist.wav" WAVE
  TRACK 06 AUDIO
    TITLE "Blacklist"
    PERFORMER "Out Out"
    INDEX 01 00:00:00
FILE "07 - Cold Water.wav" WAVE
  TRACK 07 AUDIO
    TITLE "Cold Water"
    PERFORMER "Out Out"
    INDEX 01 00:00:00
FILE "08 - Pulling Teeth Perhaps.wav" WAVE
  TRACK 08 AUDIO
    TITLE "Pulling Teeth Perhaps"
    PERFORMER "Out Out"
    INDEX 01 00:00:00
  TRACK 09 AUDIO
    TITLE "E&E"
    PERFORMER "Out Out"
    INDEX 00 04:05:62
FILE "09 - E&E.wav" WAVE
    INDEX 01 00:00:00
FILE "10 - Ethico.wav" WAVE
  TRACK 10 AUDIO
    TITLE "Ethico"
    PERFORMER "Out Out"
    INDEX 01 00:00:00
FILE "11 - Nisus.wav" WAVE
  TRACK 11 AUDIO
    TITLE "Nisus"
    PERFORMER "Out Out"
    INDEX 01 00:00:00
Правила, инструкции, FAQ!!!
Торрент  Добавлен [26 июн 2020, 17:01] Скачать торрент Магнет ссылка
Скачать торрент
[ Размер 15.03 КБ / Просмотров 2 ]

Статус
Проверен 
 
Размер  356.42 МБ
Приватный: Нет (DHT включён)
.torrent скачан  0
 


     Отправить личное сообщение
   
Страница 1 из 1
Показать сообщения за:  Поле сортировки  
Начать новую тему Ответить на тему


Сейчас этот форум просматривают: нет зарегистрированных пользователей и гости: 0


Вы не можете начинать темы
Вы не можете отвечать на сообщения
Вы не можете редактировать свои сообщения
Вы не можете удалять свои сообщения
Вы не можете добавлять вложения

Перейти:  
cron