Начать новую тему Ответить на тему
Статистика раздачи
Размер: 317.06 МБ | Добавлен: 26 июн 2020, 20:06 | Скачали: 0
Сидеров: 0  [0 байт/сек]    Личеров: 0  [0 байт/сек]
Пред. тема | След. тема 

Автор
Сообщение

СообщениеДобавлено: 26 июн 2020, 20:06 

Ответить с цитатой 

ohGr / unDeveloped
Жанр: Industrial, Electro
Год издания диска: 2011
Издатель (лейбл): Synthetic Symphony
Номер по каталогу: SPV 309412 CD
Страна: Germany
Аудиокодек: FLAC (*.flac)
Тип рипа: tracks+.cue
Битрейт аудио: lossless
Продолжительность: 53:03
Источник (релизер): What
Наличие сканов в содержимом раздачи: нет
Треклист:
01 101 (Intro) 1:11
02 101 4:36
03 Crash (Intro) 1:47
04 Crash 3:29
05 Pissage 3:47
06 Comedown 4:47
07 Typer 4:10
08 Screwme 4:09
09 Bellew 4:19
10 Hollow 3:29
11 Tragek 3:47
12 Animist 3:33
13a Nitwitz 3:53
13b (no audio) 1:05
13c Collidoskope 4:56
Код:
Exact Audio Copy V0.99 prebeta 5 from 4. May 2009
EAC extraction logfile from 12. May 2011, 23:06
ohGr / Undeveloped
Used drive  : HL-DT-STDVDRAM GH41N   Adapter: 7  ID: 0
Read mode               : Secure
Utilize accurate stream : Yes
Defeat audio cache      : Yes
Make use of C2 pointers : No
Read offset correction                      : 667
Overread into Lead-In and Lead-Out          : No
Fill up missing offset samples with silence : Yes
Delete leading and trailing silent blocks   : No
Null samples used in CRC calculations       : Yes
Used interface                              : Native Win32 interface for Win NT & 2000
Gap handling                                : Appended to previous track
Used output format              : User Defined Encoder
Selected bitrate                : 320 kBit/s
Quality                         : High
Add ID3 tag                     : No
Command line compressor         : C:\Program Files (x86)\Exact Audio Copy\FLAC\FLAC.EXE
Additional command line options : -V -8 -T "artist=%a" -T "title=%t" -T "album=%g" -T "date=%y" -T "tracknumber=%n" -T "genre=%m" %s
TOC of the extracted CD
     Track |   Start  |  Length  | Start sector | End sector
    ---------------------------------------------------------
        1  |  0:00.00 |  1:11.17 |         0    |     5341
        2  |  1:11.17 |  4:36.15 |      5342    |    26056
        3  |  5:47.32 |  1:47.08 |     26057    |    34089
        4  |  7:34.40 |  3:29.35 |     34090    |    49799
        5  | 11:04.00 |  3:47.03 |     49800    |    66827
        6  | 14:51.03 |  4:47.63 |     66828    |    88415
        7  | 19:38.66 |  4:10.57 |     88416    |   107222
        8  | 23:49.48 |  4:09.43 |    107223    |   125940
        9  | 27:59.16 |  4:19.64 |    125941    |   145429
       10  | 32:19.05 |  3:29.11 |    145430    |   161115
       11  | 35:48.16 |  3:47.33 |    161116    |   178173
       12  | 39:35.49 |  3:33.57 |    178174    |   194205
       13  | 43:09.31 |  9:54.19 |    194206    |   238774
Track  1
     Filename I:\{UPLOADS}\Rips\! Fresh meat\ohGr - 2011 - Undeveloped [FLAC]\01 - Undeveloped - 101_intro.wav
     Pre-gap length  0:00:02.00
     Peak level 55.1 %
     Track quality 100.0 %
     Test CRC 1528C94A
     Copy CRC 1528C94A
     Track not present in AccurateRip database
     Copy OK
Track  2
     Filename I:\{UPLOADS}\Rips\! Fresh meat\ohGr - 2011 - Undeveloped [FLAC]\02 - Undeveloped - 101.wav
     Peak level 99.7 %
     Track quality 100.0 %
     Test CRC 9E3D7402
     Copy CRC 9E3D7402
     Track not present in AccurateRip database
     Copy OK
Track  3
     Filename I:\{UPLOADS}\Rips\! Fresh meat\ohGr - 2011 - Undeveloped [FLAC]\03 - Undeveloped - crash_intro.wav
     Peak level 52.0 %
     Track quality 100.0 %
     Test CRC 664D071F
     Copy CRC 664D071F
     Track not present in AccurateRip database
     Copy OK
Track  4
     Filename I:\{UPLOADS}\Rips\! Fresh meat\ohGr - 2011 - Undeveloped [FLAC]\04 - Undeveloped - crash.wav
     Peak level 100.0 %
     Track quality 100.0 %
     Test CRC 53EC68E9
     Copy CRC 53EC68E9
     Track not present in AccurateRip database
     Copy OK
Track  5
     Filename I:\{UPLOADS}\Rips\! Fresh meat\ohGr - 2011 - Undeveloped [FLAC]\05 - Undeveloped - pissage.wav
     Peak level 99.1 %
     Track quality 100.0 %
     Test CRC 77A1ACBD
     Copy CRC 77A1ACBD
     Track not present in AccurateRip database
     Copy OK
Track  6
     Filename I:\{UPLOADS}\Rips\! Fresh meat\ohGr - 2011 - Undeveloped [FLAC]\06 - Undeveloped - comedown.wav
     Peak level 99.2 %
     Track quality 100.0 %
     Test CRC B5253D33
     Copy CRC B5253D33
     Track not present in AccurateRip database
     Copy OK
Track  7
     Filename I:\{UPLOADS}\Rips\! Fresh meat\ohGr - 2011 - Undeveloped [FLAC]\07 - Undeveloped - typer.wav
     Peak level 70.8 %
     Track quality 100.0 %
     Test CRC EA393765
     Copy CRC EA393765
     Track not present in AccurateRip database
     Copy OK
Track  8
     Filename I:\{UPLOADS}\Rips\! Fresh meat\ohGr - 2011 - Undeveloped [FLAC]\08 - Undeveloped - screwMe.wav
     Peak level 97.1 %
     Track quality 100.0 %
     Test CRC 764AD51A
     Copy CRC 764AD51A
     Track not present in AccurateRip database
     Copy OK
Track  9
     Filename I:\{UPLOADS}\Rips\! Fresh meat\ohGr - 2011 - Undeveloped [FLAC]\09 - Undeveloped - bellew.wav
     Peak level 95.4 %
     Track quality 100.0 %
     Test CRC 27082767
     Copy CRC 27082767
     Track not present in AccurateRip database
     Copy OK
Track 10
     Filename I:\{UPLOADS}\Rips\! Fresh meat\ohGr - 2011 - Undeveloped [FLAC]\10 - Undeveloped - hollow.wav
     Peak level 99.5 %
     Track quality 100.0 %
     Test CRC 689BB6B7
     Copy CRC 689BB6B7
     Track not present in AccurateRip database
     Copy OK
Track 11
     Filename I:\{UPLOADS}\Rips\! Fresh meat\ohGr - 2011 - Undeveloped [FLAC]\11 - Undeveloped - traGek.wav
     Peak level 100.0 %
     Track quality 99.9 %
     Test CRC 575497A2
     Copy CRC 575497A2
     Track not present in AccurateRip database
     Copy OK
Track 12
     Filename I:\{UPLOADS}\Rips\! Fresh meat\ohGr - 2011 - Undeveloped [FLAC]\12 - Undeveloped - animist.wav
     Peak level 100.0 %
     Track quality 100.0 %
     Test CRC DE97AC6A
     Copy CRC DE97AC6A
     Track not present in AccurateRip database
     Copy OK
Track 13
     Filename I:\{UPLOADS}\Rips\! Fresh meat\ohGr - 2011 - Undeveloped [FLAC]\13 - Undeveloped - nitwitz.wav
     Peak level 100.0 %
     Track quality 100.0 %
     Test CRC A3C547A3
     Copy CRC A3C547A3
     Track not present in AccurateRip database
     Copy OK
None of the tracks are present in the AccurateRip database
No errors occurred
End of status report
Код:
REM GENRE Industrial
REM DATE 2011
REM DISCID AF0C6F0D
REM COMMENT "ExactAudioCopy v0.99pb5"
FILE "01 - Undeveloped - 101_intro.flac" WAVE
  TRACK 01 AUDIO
    INDEX 01 00:00:00
FILE "02 - Undeveloped - 101.flac" WAVE
  TRACK 02 AUDIO
    INDEX 01 00:00:00
FILE "03 - Undeveloped - crash_intro.flac" WAVE
  TRACK 03 AUDIO
    INDEX 01 00:00:00
FILE "04 - Undeveloped - crash.flac" WAVE
  TRACK 04 AUDIO
    INDEX 01 00:00:00
FILE "05 - Undeveloped - pissage.flac" WAVE
  TRACK 05 AUDIO
    INDEX 01 00:00:00
FILE "06 - Undeveloped - comedown.flac" WAVE
  TRACK 06 AUDIO
    INDEX 01 00:00:00
FILE "07 - Undeveloped - typer.flac" WAVE
  TRACK 07 AUDIO
    INDEX 01 00:00:00
FILE "08 - Undeveloped - screwMe.flac" WAVE
  TRACK 08 AUDIO
    INDEX 01 00:00:00
FILE "09 - Undeveloped - bellew.flac" WAVE
  TRACK 09 AUDIO
    INDEX 01 00:00:00
FILE "10 - Undeveloped - hollow.flac" WAVE
  TRACK 10 AUDIO
    INDEX 01 00:00:00
FILE "11 - Undeveloped - traGek.flac" WAVE
  TRACK 11 AUDIO
    INDEX 01 00:00:00
FILE "12 - Undeveloped - animist.flac" WAVE
  TRACK 12 AUDIO
    INDEX 01 00:00:00
FILE "13 - Undeveloped - nitwitz.flac" WAVE
  TRACK 13 AUDIO
    INDEX 01 00:00:00
Правила, инструкции, FAQ!!!
Торрент  Добавлен [26 июн 2020, 20:06] Скачать торрент Магнет ссылка
Скачать торрент
[ Размер 13.75 КБ / Просмотров 4 ]

Статус
Проверен 
 
Размер  317.06 МБ
Приватный: Нет (DHT включён)
.torrent скачан  0
 


     Отправить личное сообщение
   
Страница 1 из 1
Показать сообщения за:  Поле сортировки  
Начать новую тему Ответить на тему


Сейчас этот форум просматривают: нет зарегистрированных пользователей и гости: 0


Вы не можете начинать темы
Вы не можете отвечать на сообщения
Вы не можете редактировать свои сообщения
Вы не можете удалять свои сообщения
Вы не можете добавлять вложения

Перейти:  
cron