Начать новую тему Ответить на тему
Статистика раздачи
Размер: 652.76 МБ | Добавлен: 26 июн 2020, 17:54 | Скачали: 0
Сидеров: 0  [0 байт/сек]    Личеров: 0  [0 байт/сек]
Пред. тема | След. тема 

Автор
Сообщение

СообщениеДобавлено: 26 июн 2020, 17:54 

Ответить с цитатой 

Noisuf-X / Excessive Exposure 2СD
Жанр: Industrial, Electro
Страна-производитель диска: Германия
Год издания диска: 2010
Издатель (лейбл): Pro Noize
Номер по каталогу: PN 046
Страна: Германия
Аудио кодек: FLAC (*.flac)
Тип рипа: image+.cue
Битрейт аудио: lossless
Источник (релизер): собственный рип
Наличие сканов в содержимом раздачи: да
Треклист:
Excessive Exposure
1-1 All Systems Go! 5:02
1-2 Deutschland Braucht Bewegung 4:10
1-3 Please Hang Up (Mobile Interferrence) 4:47
1-4 Aggrophil 4:37
1-5 Excessive Exposure 3:34
1-6 I Am Watching You 4:54
1-7 Hans Dampf 4:22
1-8 White Noise 3:33
1-9 Fucking Invective 4:34
1-10 RAPture (Holy Shit Mix) 3:43
1-11 Beatz & Bass (Blast In Your Face) 4:26
1-12 Effeccctt 4:20
1-13 Fire (C=64 Tribute) 4:26
1-14 Shut The Hell Up 4:52
1-15 Untitled 1:37
Excessive Extension
2-1 Jaws Feat. Johan Van Roy 4:27
2-2 Creep Feat. Peter Spilles 4:34
2-3 Revelation 9:6 4:35
2-4 Industrial Revolution 4:22
Код:
Exact Audio Copy V0.99 prebeta 5 from 4. May 2009
EAC extraction logfile from 11. September 2010, 11:30
Noisuf-X / Excessive Exposure
Used drive  : PIONEER DVD-RW  DVR-216D   Adapter: 2  ID: 1
Read mode               : Secure
Utilize accurate stream : Yes
Defeat audio cache      : Yes
Make use of C2 pointers : No
Read offset correction                      : 96
Overread into Lead-In and Lead-Out          : No
Fill up missing offset samples with silence : Yes
Delete leading and trailing silent blocks   : No
Null samples used in CRC calculations       : Yes
Used interface                              : Native Win32 interface for Win NT & 2000
Used output format : Internal WAV Routines
Sample format      : 44.100 Hz; 16 Bit; Stereo
TOC of the extracted CD
     Track |   Start  |  Length  | Start sector | End sector
    ---------------------------------------------------------
        1  |  0:00.00 |  5:01.60 |         0    |    22634
        2  |  5:01.60 |  4:10.03 |     22635    |    41387
        3  |  9:11.63 |  4:47.28 |     41388    |    62940
        4  | 13:59.16 |  4:37.29 |     62941    |    83744
        5  | 18:36.45 |  3:34.08 |     83745    |    99802
        6  | 22:10.53 |  4:53.70 |     99803    |   121847
        7  | 27:04.48 |  4:21.49 |    121848    |   141471
        8  | 31:26.22 |  3:33.03 |    141472    |   157449
        9  | 34:59.25 |  4:33.48 |    157450    |   177972
       10  | 39:32.73 |  3:42.62 |    177973    |   194684
       11  | 43:15.60 |  4:26.22 |    194685    |   214656
       12  | 47:42.07 |  4:20.07 |    214657    |   234163
       13  | 52:02.14 |  4:26.31 |    234164    |   254144
       14  | 56:28.45 |  4:52.01 |    254145    |   276045
       15  | 61:20.46 |  1:37.29 |    276046    |   283349
Range status and errors
Selected range
     Filename K:\Noisuf-X - Excessive Extension\Noisuf-X - Excessive Exposure.wav
     Peak level 99.1 %
     Range quality 100.0 %
     Test CRC C1EB5932
     Copy CRC C1EB5932
     Copy OK
No errors occurred
AccurateRip summary
Track  1  accurately ripped (confidence 3)  [7AF513F7]
Track  2  accurately ripped (confidence 3)  [6655CAF7]
Track  3  accurately ripped (confidence 3)  [B7C0D719]
Track  4  accurately ripped (confidence 3)  [3BBE7446]
Track  5  accurately ripped (confidence 3)  [C5E57C62]
Track  6  accurately ripped (confidence 4)  [0E0DB000]
Track  7  accurately ripped (confidence 3)  [0590CB9E]
Track  8  accurately ripped (confidence 3)  [39B5839A]
Track  9  accurately ripped (confidence 3)  [6D3FA8B9]
Track 10  accurately ripped (confidence 3)  [AB1991FC]
Track 11  accurately ripped (confidence 3)  [EA8FD0BC]
Track 12  accurately ripped (confidence 3)  [93D6B161]
Track 13  accurately ripped (confidence 3)  [F53DECDD]
Track 14  accurately ripped (confidence 3)  [F26B9714]
Track 15  accurately ripped (confidence 4)  [8D7C81F5]
All tracks accurately ripped
End of status report
Exact Audio Copy V0.99 prebeta 5 from 4. May 2009
EAC extraction logfile from 11. September 2010, 11:02
Noisuf-X / Excessive Extension
Used drive  : PIONEER DVD-RW  DVR-216D   Adapter: 2  ID: 1
Read mode               : Secure
Utilize accurate stream : Yes
Defeat audio cache      : Yes
Make use of C2 pointers : No
Read offset correction                      : 96
Overread into Lead-In and Lead-Out          : No
Fill up missing offset samples with silence : Yes
Delete leading and trailing silent blocks   : No
Null samples used in CRC calculations       : Yes
Used interface                              : Native Win32 interface for Win NT & 2000
Used output format : Internal WAV Routines
Sample format      : 44.100 Hz; 16 Bit; Stereo
TOC of the extracted CD
     Track |   Start  |  Length  | Start sector | End sector
    ---------------------------------------------------------
        1  |  0:00.00 |  4:26.72 |         0    |    20021
        2  |  4:26.72 |  4:33.70 |     20022    |    40566
        3  |  9:00.67 |  4:35.18 |     40567    |    61209
        4  | 13:36.10 |  4:21.65 |     61210    |    80849
        5  | 20:30.00 |  0:18.52 |     92250    |    93651
Range status and errors
Selected range
     Filename K:\Noisuf-X - Excessive Extension\Noisuf-X - Excessive Extension.wav
     Peak level 99.9 %
     Range quality 100.0 %
     Test CRC B6B2705E
     Copy CRC B6B2705E
     Copy OK
No errors occurred
AccurateRip summary
Track  1  accurately ripped (confidence 2)  [075FBBAF]
Track  2  accurately ripped (confidence 2)  [8C1F8866]
Track  3  accurately ripped (confidence 2)  [68EDCD5D]
Track  4  accurately ripped (confidence 2)  [5A0BDBBA]
All tracks accurately ripped
End of status report
"По скорости и холодным технологичным структурам многие композиции NOISUF-X приближаются к жесткому хард техно-трэнсу, а чистые синтезаторные местами напоминают подход PATENBRIGADE:WOLFF (прислушайтесь хотя бы к титульному треку). Альбом не содержит медленных треков (самую спокойную и массивно раскачивающуюся вещицу "White Noise" вы могли слышать на последней Endzeit-компиляции Alfa Matrix, так что можете представить себе насколько энергичен остальной материал) и представляет собой практически готовый ди-джейский сет, который остается только включить погромче на качественном аппарате. Современные клабберы гарантированно воспримут музыку проекта на ура."
из рецензии Машиниста
Правила, инструкции, FAQ!!!
Торрент  Добавлен [26 июн 2020, 17:54] Скачать торрент Магнет ссылка
Скачать торрент
[ Размер 14.01 КБ / Просмотров 7 ]

Статус
Проверен 
 
Размер  652.76 МБ
Приватный: Нет (DHT включён)
.torrent скачан  0
 


     Отправить личное сообщение
   
Страница 1 из 1
Показать сообщения за:  Поле сортировки  
Начать новую тему Ответить на тему


Сейчас этот форум просматривают: нет зарегистрированных пользователей и гости: 0


Вы не можете начинать темы
Вы не можете отвечать на сообщения
Вы не можете редактировать свои сообщения
Вы не можете удалять свои сообщения
Вы не можете добавлять вложения

Перейти:  
cron