Начать новую тему Ответить на тему
Статистика раздачи
Размер: 424.73 МБ | Добавлен: 26 июн 2020, 17:18 | Скачали: 0
Сидеров: 0  [0 байт/сек]    Личеров: 0  [0 байт/сек]
Пред. тема | След. тема 

Автор
Сообщение

СообщениеДобавлено: 26 июн 2020, 17:18 

Ответить с цитатой 

More Machine Than Man - 2 студийных альбома (2000 - Robot, 2001 - Electrolust)


Жанр: Industrial, Electro
Источник: What.CD


Альбомы:
Год выпуска диска: 2000
Производитель диска: USA
Аудио кодек: FLAC
Тип рипа: tracks
Битрейт аудио: lossless
Продолжительность: 35:08
Трэклист:
1 Disease 1:36
2 Forsake All Else 2:30
3 Perv 3:19
4 Jezebel 3:58
5 Gloves 0:48
6 F.A.N [Fragile & Naive] 4:01
7 Digital Heresy 2:01
8 Spartacus Switch 3:48
9 Circuit 1:12
10 Obsession 4:13
11 Driven By Hate 2:59
12 Metamorphic Rage 2:03
13 Meat Machine 2:36
Код:
Exact Audio Copy V0.99 prebeta 5 from 4. May 2009
EAC extraction logfile from 11. November 2009, 19:33
More Machine than Man / Robot
Used drive  : Optiarc DVD RW AD-7560A   Adapter: 1  ID: 0
Read mode               : Secure
Utilize accurate stream : Yes
Defeat audio cache      : No
Make use of C2 pointers : No
Read offset correction                      : 6
Overread into Lead-In and Lead-Out          : No
Fill up missing offset samples with silence : Yes
Delete leading and trailing silent blocks   : No
Null samples used in CRC calculations       : No
Used interface                              : Native Win32 interface for Win NT & 2000
Gap handling                                : Not detected, thus appended to previous track
Used output format              : User Defined Encoder
Selected bitrate                : 768 kBit/s
Quality                         : High
Add ID3 tag                     : No
Command line compressor         : C:\Program Files\Exact Audio Copy\FLAC\FLAC.EXE
Additional command line options : -6 -V -T "ARTIST=%a" -T "TITLE=%t" -T "ALBUM=%g" -T "DATE=%y" -T "TRACKNUMBER=%n" -T "GENRE=%m" -T "COMMENT=%e" %s -o %d
TOC of the extracted CD
     Track |   Start  |  Length  | Start sector | End sector
    ---------------------------------------------------------
        1  |  0:00.00 |  1:36.01 |         0    |     7200
        2  |  1:36.01 |  2:30.01 |      7201    |    18451
        3  |  4:06.02 |  3:19.09 |     18452    |    33385
        4  |  7:25.11 |  3:58.16 |     33386    |    51251
        5  | 11:23.27 |  0:48.01 |     51252    |    54852
        6  | 12:11.28 |  4:01.39 |     54853    |    72966
        7  | 16:12.67 |  2:01.39 |     72967    |    82080
        8  | 18:14.31 |  3:48.43 |     82081    |    99223
        9  | 22:02.74 |  1:12.66 |     99224    |   104689
       10  | 23:15.65 |  4:13.34 |    104690    |   123698
       11  | 27:29.24 |  2:59.47 |    123699    |   137170
       12  | 30:28.71 |  2:03.01 |    137171    |   146396
       13  | 32:31.72 |  2:36.01 |    146397    |   158097
Track  1
     Filename C:\Users\Ongakuka\Documents\Disease.wav
     Peak level 100.0 %
     Track quality 99.8 %
     Copy CRC 1564FA39
     Accurately ripped (confidence 1)  [364C6279]
     Copy OK
Track  2
     Filename C:\Users\Ongakuka\Documents\Forsake All Else.wav
     Peak level 100.0 %
     Track quality 100.0 %
     Copy CRC 2A8BAA58
     Accurately ripped (confidence 1)  [037A7EDF]
     Copy OK
Track  3
     Filename C:\Users\Ongakuka\Documents\Perv.wav
     Peak level 100.0 %
     Track quality 100.0 %
     Copy CRC EDBABF3E
     Accurately ripped (confidence 1)  [2608FD01]
     Copy OK
Track  4
     Filename C:\Users\Ongakuka\Documents\Jezebel.wav
     Peak level 100.0 %
     Track quality 100.0 %
     Copy CRC 7F0F73E3
     Accurately ripped (confidence 1)  [02543A39]
     Copy OK
Track  5
     Filename C:\Users\Ongakuka\Documents\Gloves.wav
     Peak level 100.0 %
     Track quality 100.0 %
     Copy CRC 2663D334
     Accurately ripped (confidence 1)  [CC026A44]
     Copy OK
Track  6
     Filename C:\Users\Ongakuka\Documents\F.A.N.wav
     Peak level 100.0 %
     Track quality 100.0 %
     Copy CRC 43DBE2A5
     Accurately ripped (confidence 1)  [3D76CEAA]
     Copy OK
Track  7
     Filename C:\Users\Ongakuka\Documents\Digital Heresy.wav
     Peak level 100.0 %
     Track quality 99.9 %
     Copy CRC 850320B0
     Accurately ripped (confidence 1)  [3271379B]
     Copy OK
Track  8
     Filename C:\Users\Ongakuka\Documents\Spartacus Switch.wav
     Peak level 100.0 %
     Track quality 100.0 %
     Copy CRC B1290A9E
     Accurately ripped (confidence 1)  [3283285B]
     Copy OK
Track  9
     Filename C:\Users\Ongakuka\Documents\Circuit.wav
     Peak level 100.0 %
     Track quality 100.0 %
     Copy CRC F6286DBB
     Accurately ripped (confidence 1)  [64A3DA5B]
     Copy OK
Track 10
     Filename C:\Users\Ongakuka\Documents\Obsession.wav
     Peak level 100.0 %
     Track quality 100.0 %
     Copy CRC 0B11BF2E
     Accurately ripped (confidence 1)  [C6822BAA]
     Copy OK
Track 11
     Filename C:\Users\Ongakuka\Documents\Driven by Hate.wav
     Peak level 100.0 %
     Track quality 99.9 %
     Copy CRC 1FD44E34
     Accurately ripped (confidence 1)  [9B6B9DD9]
     Copy OK
Track 12
     Filename C:\Users\Ongakuka\Documents\Metamorphic Rage.wav
     Peak level 100.0 %
     Track quality 99.8 %
     Copy CRC D53FA05D
     Accurately ripped (confidence 1)  [52A590BD]
     Copy OK
Track 13
     Filename C:\Users\Ongakuka\Documents\Meat Machine.wav
     Peak level 100.0 %
     Track quality 99.0 %
     Copy CRC 756705D2
     Accurately ripped (confidence 1)  [B63455FC]
     Copy OK
All tracks accurately ripped
No errors occurred
End of status report
Код:
AUDIOCHECKER v2.0 beta (build 457) - by Dester - opdester@freemail.hu
~~~~~~~~~~~~~~~~~~~~~~~~~~~~~~~~~~
Started at: âòîðíèê, 09. 11. 2010. - 19:44.48
13 files found
01 -===- H:\[Music (lossless)]\More Machine Than Man - [2000] - Robot\01 - Disease.flac
  Extracted successfully
  Conclusion: this track is CDDA with probability 100%
  Tempfile successfully deleted.
02 -===- H:\[Music (lossless)]\More Machine Than Man - [2000] - Robot\02 - Forsake All Else.flac
  Extracted successfully
  Conclusion: this track is CDDA with probability 100%
  Tempfile successfully deleted.
03 -===- H:\[Music (lossless)]\More Machine Than Man - [2000] - Robot\03 - Perv.flac
  Extracted successfully
  Conclusion: this track is CDDA with probability 100%
  Tempfile successfully deleted.
04 -===- H:\[Music (lossless)]\More Machine Than Man - [2000] - Robot\04 - Jezebel.flac
  Extracted successfully
  Conclusion: this track is CDDA with probability 100%
  Tempfile successfully deleted.
05 -===- H:\[Music (lossless)]\More Machine Than Man - [2000] - Robot\05 - Gloves.flac
  Extracted successfully
  Conclusion: this track is CDDA with probability 100%
  Tempfile successfully deleted.
06 -===- H:\[Music (lossless)]\More Machine Than Man - [2000] - Robot\06 - F.A.N.flac
  Extracted successfully
  Conclusion: this track is CDDA with probability 100%
  Tempfile successfully deleted.
07 -===- H:\[Music (lossless)]\More Machine Than Man - [2000] - Robot\07 - Digital Heresy.flac
  Extracted successfully
  Conclusion: this track is CDDA with probability 99%
  Tempfile successfully deleted.
08 -===- H:\[Music (lossless)]\More Machine Than Man - [2000] - Robot\08 - Spartacus Switch.flac
  Extracted successfully
  Conclusion: this track is CDDA with probability 100%
  Tempfile successfully deleted.
09 -===- H:\[Music (lossless)]\More Machine Than Man - [2000] - Robot\09 - Circuit.flac
  Extracted successfully
  Conclusion: this track is CDDA with probability 100%
  Tempfile successfully deleted.
10 -===- H:\[Music (lossless)]\More Machine Than Man - [2000] - Robot\10 -Obsession.flac
  Extracted successfully
  Conclusion: this track is CDDA with probability 99%
  Tempfile successfully deleted.
11 -===- H:\[Music (lossless)]\More Machine Than Man - [2000] - Robot\11 - Driven by Hate.flac
  Extracted successfully
  Conclusion: this track is CDDA with probability 100%
  Tempfile successfully deleted.
12 -===- H:\[Music (lossless)]\More Machine Than Man - [2000] - Robot\12 - Metamorphic Rage.flac
  Extracted successfully
  Conclusion: this track is CDDA with probability 100%
  Tempfile successfully deleted.
13 -===- H:\[Music (lossless)]\More Machine Than Man - [2000] - Robot\13 - Meat Machine.flac
  Extracted successfully
  Conclusion: this track is CDDA with probability 100%
  Tempfile successfully deleted.
Finished at: âòîðíèê, 09. 11. 2010. - 19:50.16 (operation time: 0:05.28)
Код:
[img]http://img100.imageshack.us/img100/6706/23102128.jpg[/img]
[img]http://img169.imageshack.us/img169/7449/94747179.jpg[/img]
[img]http://img545.imageshack.us/img545/3613/22056789.jpg[/img]
#777Год выпуска диска: 2001
Производитель диска: USA
Аудио кодек: FLAC
Тип рипа: tracks
Битрейт аудио: lossless
Продолжительность: 33:15
Трэклист:
1 Chaos 1:39
2 Slave 2:19
3 Touch 2:17
4 Obselete 2:52
5 Self 3:39
6 Urine 1:30
7 Want 2:44
8 Praise 1:38
9 Don't Even 0:49
10 [:FA:]Q2 1:23
11 Mode3 0:41
12 God 3:01
13 Art Is Dead 0:41
14 ESP 3:04
15 Gomi 0:58
16 Desperate 1:27
17 ICE 2:27
Код:
Exact Audio Copy V0.99 prebeta 5 from 4. May 2009
EAC extraction logfile from 11. November 2009, 23:35
More Machine Than Man / Electrolust
Used drive  : Optiarc DVD RW AD-7560A   Adapter: 1  ID: 0
Read mode               : Secure
Utilize accurate stream : Yes
Defeat audio cache      : No
Make use of C2 pointers : No
Read offset correction                      : 6
Overread into Lead-In and Lead-Out          : No
Fill up missing offset samples with silence : Yes
Delete leading and trailing silent blocks   : No
Null samples used in CRC calculations       : No
Used interface                              : Native Win32 interface for Win NT & 2000
Gap handling                                : Not detected, thus appended to previous track
Used output format              : User Defined Encoder
Selected bitrate                : 768 kBit/s
Quality                         : High
Add ID3 tag                     : No
Command line compressor         : C:\Program Files\Exact Audio Copy\FLAC\FLAC.EXE
Additional command line options : -6 -V -T "ARTIST=%a" -T "TITLE=%t" -T "ALBUM=%g" -T "DATE=%y" -T "TRACKNUMBER=%n" -T "GENRE=%m" -T "COMMENT=%e" %s -o %d
TOC of the extracted CD
     Track |   Start  |  Length  | Start sector | End sector
    ---------------------------------------------------------
        1  |  0:00.00 |  1:39.12 |         0    |     7436
        2  |  1:39.12 |  2:19.31 |      7437    |    17892
        3  |  3:58.43 |  2:17.12 |     17893    |    28179
        4  |  6:15.55 |  2:52.33 |     28180    |    41112
        5  |  9:08.13 |  3:39.29 |     41113    |    57566
        6  | 12:47.42 |  1:30.45 |     57567    |    64361
        7  | 14:18.12 |  2:44.44 |     64362    |    76705
        8  | 17:02.56 |  1:38.08 |     76706    |    84063
        9  | 18:40.64 |  0:49.45 |     84064    |    87783
       10  | 19:30.34 |  1:23.14 |     87784    |    94022
       11  | 20:53.48 |  0:41.11 |     94023    |    97108
       12  | 21:34.59 |  3:01.10 |     97109    |   110693
       13  | 24:35.69 |  0:41.62 |    110694    |   113830
       14  | 25:17.56 |  3:04.31 |    113831    |   127661
       15  | 28:22.12 |  0:58.38 |    127662    |   132049
       16  | 29:20.50 |  1:27.23 |    132050    |   138597
       17  | 30:47.73 |  2:27.33 |    138598    |   149655
       18  | 35:47.31 | 30:50.01 |    161056    |   299806
Track  1
     Filename C:\Users\Ongakuka\Documents\Chaos.wav
     Peak level 100.0 %
     Track quality 99.8 %
     Copy CRC 81B9A652
     Accurately ripped (confidence 1)  [E3B7F5DB]
     Copy OK
Track  2
     Filename C:\Users\Ongakuka\Documents\Slave.wav
     Peak level 100.0 %
     Track quality 100.0 %
     Copy CRC 3BE42BF0
     Accurately ripped (confidence 1)  [5DC5D8E2]
     Copy OK
Track  3
     Filename C:\Users\Ongakuka\Documents\Touch.wav
     Peak level 100.0 %
     Track quality 99.9 %
     Copy CRC 5AC41C7D
     Accurately ripped (confidence 1)  [FEB8ACEC]
     Copy OK
Track  4
     Filename C:\Users\Ongakuka\Documents\Obsolete.wav
     Peak level 100.0 %
     Track quality 100.0 %
     Copy CRC DF1F55E2
     Accurately ripped (confidence 1)  [ECF67750]
     Copy OK
Track  5
     Filename C:\Users\Ongakuka\Documents\Self.wav
     Peak level 100.0 %
     Track quality 100.0 %
     Copy CRC 9B0A9AAF
     Accurately ripped (confidence 1)  [7818AA95]
     Copy OK
Track  6
     Filename C:\Users\Ongakuka\Documents\Urine.wav
     Peak level 100.0 %
     Track quality 100.0 %
     Copy CRC A2701DA3
     Accurately ripped (confidence 1)  [3F9F1AFA]
     Copy OK
Track  7
     Filename C:\Users\Ongakuka\Documents\Want.wav
     Peak level 100.0 %
     Track quality 100.0 %
     Copy CRC 2F8A79E7
     Accurately ripped (confidence 1)  [6B5BABD3]
     Copy OK
Track  8
     Filename C:\Users\Ongakuka\Documents\Praise.wav
     Peak level 100.0 %
     Track quality 100.0 %
     Copy CRC A8F91786
     Accurately ripped (confidence 1)  [8C527840]
     Copy OK
Track  9
     Filename C:\Users\Ongakuka\Documents\Don't Even.wav
     Peak level 100.0 %
     Track quality 100.0 %
     Copy CRC CE15F4BC
     Accurately ripped (confidence 1)  [7994489B]
     Copy OK
Track 10
     Filename C:\Users\Ongakuka\Documents\[-fa-]Q2.wav
     Peak level 100.0 %
     Track quality 100.0 %
     Copy CRC 4EDC6048
     Accurately ripped (confidence 1)  [A5ED8648]
     Copy OK
Track 11
     Filename C:\Users\Ongakuka\Documents\Mode3.wav
     Peak level 100.0 %
     Track quality 100.0 %
     Copy CRC 30313861
     Accurately ripped (confidence 1)  [4EC4CAEA]
     Copy OK
Track 12
     Filename C:\Users\Ongakuka\Documents\God.wav
     Peak level 100.0 %
     Track quality 100.0 %
     Copy CRC F218073D
     Accurately ripped (confidence 1)  [3C03DA9F]
     Copy OK
Track 13
     Filename C:\Users\Ongakuka\Documents\Art is Dead.wav
     Peak level 100.0 %
     Track quality 99.7 %
     Copy CRC 436ED7B4
     Accurately ripped (confidence 1)  [BD9E6D5A]
     Copy OK
Track 14
     Filename C:\Users\Ongakuka\Documents\ESP.wav
     Peak level 100.0 %
     Track quality 100.0 %
     Copy CRC A8171917
     Accurately ripped (confidence 1)  [7B4C9BBD]
     Copy OK
Track 15
     Filename C:\Users\Ongakuka\Documents\Gomi.wav
     Peak level 94.6 %
     Track quality 100.0 %
     Copy CRC DD32E9D4
     Accurately ripped (confidence 1)  [C0D8C11D]
     Copy OK
Track 16
     Filename C:\Users\Ongakuka\Documents\Desperate.wav
     Peak level 100.0 %
     Track quality 99.8 %
     Copy CRC AF4909ED
     Accurately ripped (confidence 1)  [D98153E4]
     Copy OK
Track 17
     Filename C:\Users\Ongakuka\Documents\ICE.wav
     Peak level 100.0 %
     Track quality 99.9 %
     Copy CRC D1E134BC
     Accurately ripped (confidence 1)  [0728BAC8]
     Copy OK
All tracks accurately ripped
No errors occurred
End of status report
Код:
AUDIOCHECKER v2.0 beta (build 457) - by Dester - opdester@freemail.hu
~~~~~~~~~~~~~~~~~~~~~~~~~~~~~~~~~~
Started at: âòîðíèê, 09. 11. 2010. - 20:00.57
17 files found
01 -===- H:\[Music (lossless)]\More Machine Than Man - [2001] - Electrolust\01 - Chaos.flac
  Extracted successfully
  Conclusion: this track is CDDA with probability 100%
  Tempfile successfully deleted.
02 -===- H:\[Music (lossless)]\More Machine Than Man - [2001] - Electrolust\02 - Slave.flac
  Extracted successfully
  Conclusion: this track is CDDA with probability 100%
  Tempfile successfully deleted.
03 -===- H:\[Music (lossless)]\More Machine Than Man - [2001] - Electrolust\03 - Touch.flac
  Extracted successfully
  Conclusion: this track is CDDA with probability 100%
  Tempfile successfully deleted.
04 -===- H:\[Music (lossless)]\More Machine Than Man - [2001] - Electrolust\04 - Obsolete.flac
  Extracted successfully
  Conclusion: this track is CDDA with probability 100%
  Tempfile successfully deleted.
05 -===- H:\[Music (lossless)]\More Machine Than Man - [2001] - Electrolust\05 - Self.flac
  Extracted successfully
  Conclusion: this track is CDDA with probability 100%
  Tempfile successfully deleted.
06 -===- H:\[Music (lossless)]\More Machine Than Man - [2001] - Electrolust\06 - Urine.flac
  Extracted successfully
  Conclusion: this track is CDDA with probability 100%
  Tempfile successfully deleted.
07 -===- H:\[Music (lossless)]\More Machine Than Man - [2001] - Electrolust\07 - Want.flac
  Extracted successfully
  Conclusion: this track is CDDA with probability 99%
  Tempfile successfully deleted.
08 -===- H:\[Music (lossless)]\More Machine Than Man - [2001] - Electrolust\08 - Praise.flac
  Extracted successfully
  Conclusion: this track is CDDA with probability 100%
  Tempfile successfully deleted.
09 -===- H:\[Music (lossless)]\More Machine Than Man - [2001] - Electrolust\09 - Don't Even.flac
  Extracted successfully
  Conclusion: this track is CDDA with probability 100%
  Tempfile successfully deleted.
10 -===- H:\[Music (lossless)]\More Machine Than Man - [2001] - Electrolust\10 - [-fa-]Q2.flac
  Extracted successfully
  Conclusion: this track is CDDA with probability 100%
  Tempfile successfully deleted.
11 -===- H:\[Music (lossless)]\More Machine Than Man - [2001] - Electrolust\11 - Mode3.flac
  Extracted successfully
  Conclusion: this track is CDDA with probability 100%
  Tempfile successfully deleted.
12 -===- H:\[Music (lossless)]\More Machine Than Man - [2001] - Electrolust\12 - God.flac
  Extracted successfully
  Conclusion: this track is CDDA with probability 100%
  Tempfile successfully deleted.
13 -===- H:\[Music (lossless)]\More Machine Than Man - [2001] - Electrolust\13 - Art is Dead.flac
  Extracted successfully
  Conclusion: this track is CDDA with probability 100%
  Tempfile successfully deleted.
14 -===- H:\[Music (lossless)]\More Machine Than Man - [2001] - Electrolust\14 - ESP.flac
  Extracted successfully
  Conclusion: this track is CDDA with probability 100%
  Tempfile successfully deleted.
15 -===- H:\[Music (lossless)]\More Machine Than Man - [2001] - Electrolust\15 - Gomi.flac
  Extracted successfully
  Conclusion: this track is CDDA with probability 100%
  Tempfile successfully deleted.
16 -===- H:\[Music (lossless)]\More Machine Than Man - [2001] - Electrolust\16 - Desperate.flac
  Extracted successfully
  Conclusion: this track is CDDA with probability 100%
  Tempfile successfully deleted.
17 -===- H:\[Music (lossless)]\More Machine Than Man - [2001] - Electrolust\17 - ICE.flac
  Extracted successfully
  Conclusion: this track is CDDA with probability 99%
  Tempfile successfully deleted.
Finished at: âòîðíèê, 09. 11. 2010. - 20:05.22 (operation time: 0:04.24)
Код:
[img]http://img571.imageshack.us/img571/5591/67032168.jpg[/img]
[img]http://img816.imageshack.us/img816/8271/44160976.jpg[/img]
[img]http://img602.imageshack.us/img602/9141/26080252.jpg[/img]

Внимание! Все выложенные здесь материалы предоставлены исключительно в целях ознакомления! После ознакомления с материалами Вы обязаны их удалить! Если Вы хотите пользоваться данным материалом в дальнейшем – Вы должны приобрести лицензионный диск.
Лучшая ваша благодарность за раздачу - отзывы об альбоме!
Правила, инструкции, FAQ!!!
Торрент  Добавлен [26 июн 2020, 17:18] Скачать торрент Магнет ссылка
Скачать торрент
[ Размер 20.05 КБ / Просмотров 9 ]

Статус
Проверен 
 
Размер  424.73 МБ
Приватный: Нет (DHT включён)
.torrent скачан  0
 


     Отправить личное сообщение
   
Страница 1 из 1
Показать сообщения за:  Поле сортировки  
Начать новую тему Ответить на тему


Сейчас этот форум просматривают: нет зарегистрированных пользователей и гости: 0


Вы не можете начинать темы
Вы не можете отвечать на сообщения
Вы не можете редактировать свои сообщения
Вы не можете удалять свои сообщения
Вы не можете добавлять вложения

Перейти:  
cron