Начать новую тему Ответить на тему
Статистика раздачи
Размер: 443.1 МБ | Добавлен: 26 июн 2020, 20:42 | Скачали: 0
Сидеров: 0  [0 байт/сек]    Личеров: 0  [0 байт/сек]
Пред. тема | След. тема 

Автор
Сообщение

СообщениеДобавлено: 26 июн 2020, 20:42 

Ответить с цитатой 

Mentallo & The Fixer - Systematik Ruin
Жанр: Industrial, Electro
Год выпуска диска: 1999
Производитель диска: US
Аудио кодек: FLAC
Тип рипа: tracks+.cue
Продолжительность: 1:05:50
Трэклист:
[05:45] 01. Systematik Ruin (Remix)
[08:21] 02. Carbon Based
[12:40] 03. Intro / Systematik ruin (Last days Remix)
[04:29] 04. Inner Peace (Remix)
[07:24] 05. Carbon Based (Ambient)
[05:25] 06. Systematik ruin (Trance Tone Dub)
[13:13] 07. Michael
[03:42] 08. Carbon Based (Trance Tone Dub)
[04:47] 09. Inner Peace
Exact Audio Copy V0.99 prebeta 5 from 4. May 2009
EAC extraction logfile from 25. September 2009, 11:08
Mentallo & the Fixer / Sytematik Ruin
Used drive : TSSTcorpCDDVDW SH-S203B Adapter: 2 ID: 0
Read mode : Secure
Utilize accurate stream : Yes
Defeat audio cache : Yes
Make use of C2 pointers : No
Read offset correction : 6
Overread into Lead-In and Lead-Out : No
Fill up missing offset samples with silence : Yes
Delete leading and trailing silent blocks : No
Null samples used in CRC calculations : Yes
Used interface : Native Win32 interface for Win NT & 2000
Gap handling : Appended to previous track
Used output format : User Defined Encoder
Selected bitrate : 128 kBit/s
Quality : High
Add ID3 tag : No
Command line compressor : C:\Program Files\Exact Audio Copy\Flac\flac.exe
Additional command line options : -V -8 -T "artist=%a" -T "title=%t" -T "album=%g" -T "date=%y" -T "tracknumber=%n" -T "genre=%m" %s
TOC of the extracted CD
Track | Start | Length | Start sector | End sector
---------------------------------------------------------
1 | 0:00.00 | 5:47.32 | 0 | 26056
2 | 5:47.32 | 8:23.33 | 26057 | 63814
3 | 14:10.65 | 12:42.69 | 63815 | 121033
4 | 26:53.59 | 4:31.73 | 121034 | 141431
5 | 31:25.57 | 7:26.01 | 141432 | 174882
6 | 38:51.58 | 5:35.31 | 174883 | 200038
7 | 44:27.14 | 13:15.23 | 200039 | 259686
8 | 57:42.37 | 3:44.14 | 259687 | 276500
9 | 61:26.51 | 4:47.67 | 276501 | 298092
Track 1
Filename C:\Users\Administrator\Desktop\what.cd torrent uploads\Mentallo & the Fixer - - Sytematik Ruin\01 - Systematik Ruin (Remix).wav
Pre-gap length 0:00:02.00
Peak level 96.6 %
Track quality 100.0 %
Test CRC 9373ED48
Copy CRC 9373ED48
Accurately ripped (confidence 7) [7E954078]
Copy OK
Track 2
Filename C:\Users\Administrator\Desktop\what.cd torrent uploads\Mentallo & the Fixer - - Sytematik Ruin\02 - Carbon Based.wav
Pre-gap length 0:00:02.00
Peak level 96.6 %
Track quality 100.0 %
Test CRC A8F40649
Copy CRC A8F40649
Accurately ripped (confidence 6) [811F09C9]
Copy OK
Track 3
Filename C:\Users\Administrator\Desktop\what.cd torrent uploads\Mentallo & the Fixer - - Sytematik Ruin\03 - Intro , Systematik ruin (Last days Remix).wav
Pre-gap length 0:00:02.00
Peak level 96.6 %
Track quality 100.0 %
Test CRC 51C50ABC
Copy CRC 51C50ABC
Accurately ripped (confidence 6) [2BD2A267]
Copy OK
Track 4
Filename C:\Users\Administrator\Desktop\what.cd torrent uploads\Mentallo & the Fixer - - Sytematik Ruin\04 - Inner Peace (Remix).wav
Pre-gap length 0:00:02.00
Peak level 96.6 %
Track quality 99.9 %
Test CRC 694314B9
Copy CRC 694314B9
Accurately ripped (confidence 6) [2873B6F7]
Copy OK
Track 5
Filename C:\Users\Administrator\Desktop\what.cd torrent uploads\Mentallo & the Fixer - - Sytematik Ruin\05 - Carbon Based (Ambient).wav
Pre-gap length 0:00:02.00
Peak level 96.6 %
Track quality 100.0 %
Test CRC A1259C40
Copy CRC A1259C40
Accurately ripped (confidence 6) [9AA854A5]
Copy OK
Track 6
Filename C:\Users\Administrator\Desktop\what.cd torrent uploads\Mentallo & the Fixer - - Sytematik Ruin\06 - Systematik ruin (Trance Tone Dub).wav
Pre-gap length 0:00:02.00
Peak level 96.6 %
Track quality 100.0 %
Test CRC 9F1A8AC8
Copy CRC 9F1A8AC8
Accurately ripped (confidence 6) [A6CD39CB]
Copy OK
Track 7
Filename C:\Users\Administrator\Desktop\what.cd torrent uploads\Mentallo & the Fixer - - Sytematik Ruin\07 - Michael.wav
Pre-gap length 0:00:10.00
Peak level 96.6 %
Track quality 99.9 %
Test CRC 0D8D3E5A
Copy CRC 0D8D3E5A
Accurately ripped (confidence 2) [4FE4E4C3]
Copy OK
Track 8
Filename C:\Users\Administrator\Desktop\what.cd torrent uploads\Mentallo & the Fixer - - Sytematik Ruin\08 - Carbon Based (Trance Tone Dub).wav
Pre-gap length 0:00:02.00
Peak level 96.6 %
Track quality 100.0 %
Test CRC A1F1AD2D
Copy CRC A1F1AD2D
Accurately ripped (confidence 6) [58A859F6]
Copy OK
Track 9
Filename C:\Users\Administrator\Desktop\what.cd torrent uploads\Mentallo & the Fixer - - Sytematik Ruin\09 - Inner Peace.wav
Pre-gap length 0:00:02.00
Peak level 96.6 %
Track quality 99.9 %
Test CRC A9C4E0EB
Copy CRC A9C4E0EB
Accurately ripped (confidence 6) [62A7F83F]
Copy OK
All tracks accurately ripped
No errors occurred
End of status report
REM DISCID 920F8609
REM COMMENT "ExactAudioCopy v0.99pb5"
PERFORMER "Mentallo & the Fixer"
TITLE "Sytematik Ruin"
FILE "01 - Systematik Ruin (Remix).flac" WAVE
TRACK 01 AUDIO
TITLE "Systematik Ruin (Remix)"
PERFORMER "Mentallo & the Fixer"
INDEX 01 00:00:00
TRACK 02 AUDIO
TITLE "Carbon Based"
PERFORMER "Mentallo & the Fixer"
INDEX 00 05:45:32
FILE "02 - Carbon Based.flac" WAVE
INDEX 01 00:00:00
TRACK 03 AUDIO
TITLE "Intro / Systematik ruin (Last days Remix)"
PERFORMER "Mentallo & the Fixer"
INDEX 00 08:21:33
FILE "03 - Intro , Systematik ruin (Last days Remix).flac" WAVE
INDEX 01 00:00:00
TRACK 04 AUDIO
TITLE "Inner Peace (Remix)"
PERFORMER "Mentallo & the Fixer"
INDEX 00 12:40:69
FILE "04 - Inner Peace (Remix).flac" WAVE
INDEX 01 00:00:00
TRACK 05 AUDIO
TITLE "Carbon Based (Ambient)"
PERFORMER "Mentallo & the Fixer"
INDEX 00 04:29:73
FILE "05 - Carbon Based (Ambient).flac" WAVE
INDEX 01 00:00:00
TRACK 06 AUDIO
TITLE "Systematik ruin (Trance Tone Dub)"
PERFORMER "Mentallo & the Fixer"
INDEX 00 07:24:01
FILE "06 - Systematik ruin (Trance Tone Dub).flac" WAVE
INDEX 01 00:00:00
TRACK 07 AUDIO
TITLE "Michael"
PERFORMER "Mentallo & the Fixer"
INDEX 00 05:25:31
FILE "07 - Michael.flac" WAVE
INDEX 01 00:00:00
TRACK 08 AUDIO
TITLE "Carbon Based (Trance Tone Dub)"
PERFORMER "Mentallo & the Fixer"
INDEX 00 13:13:23
FILE "08 - Carbon Based (Trance Tone Dub).flac" WAVE
INDEX 01 00:00:00
TRACK 09 AUDIO
TITLE "Inner Peace"
PERFORMER "Mentallo & the Fixer"
INDEX 00 03:42:14
FILE "09 - Inner Peace.flac" WAVE
INDEX 01 00:00:00
Релиз взят с What.cd. Спасибо релизерам!
Правила, инструкции, FAQ!!!
Торрент  Добавлен [26 июн 2020, 20:42] Скачать торрент Магнет ссылка
Скачать торрент
[ Размер 18.43 КБ / Просмотров 7 ]

Статус
Проверен 
 
Размер  443.1 МБ
Приватный: Нет (DHT включён)
.torrent скачан  0
 


     Отправить личное сообщение
   
Страница 1 из 1
Показать сообщения за:  Поле сортировки  
Начать новую тему Ответить на тему


Сейчас этот форум просматривают: нет зарегистрированных пользователей и гости: 0


Вы не можете начинать темы
Вы не можете отвечать на сообщения
Вы не можете редактировать свои сообщения
Вы не можете удалять свои сообщения
Вы не можете добавлять вложения

Перейти:  
cron