Начать новую тему Ответить на тему
Статистика раздачи
Размер: 569.1 МБ | Добавлен: 26 июн 2020, 17:36 | Скачали: 0
Сидеров: 0  [0 байт/сек]    Личеров: 0  [0 байт/сек]
Пред. тема | След. тема 

Автор
Сообщение

СообщениеДобавлено: 26 июн 2020, 17:36 

Ответить с цитатой 

Mechanical Horizon - New Horizons

Жанр: Industrial / Electro
Год выпуска диска: 2001
Производитель диска: Germany
Аудио кодек: APE
Тип рипа: image+.cue
Битрейт аудио: lossless
Продолжительность: 63:56
Трэклист:
1 Promise The Way (7:53)
2 New Horizons (6:07)
3 Exhail (6:13)
4 Reise In Die Unendlichheit (5:48)
5 Eternity Is Past (6:31)
6 Spread Your Wings (4:29)
7 In Silence (3:47)
8 Deeper Than Devotion (6:32)
9 Tears (5:43)
10 The Chase (5:16)
11 Gottes Vergessenes Kind (5:30)
Доп. информация: Maschinenwelt Records; MW 031
Код:
Exact Audio Copy V0.99 prebeta 4 from 23. January 2008
EAC extraction logfile from 30. November 2008, 2:13
Mechanical Horizon / New Horizons
Used drive  : PIONEER DVD-RW  DVR-112D   Adapter: 1  ID: 1
Read mode               : Secure
Utilize accurate stream : Yes
Defeat audio cache      : Yes
Make use of C2 pointers : No
Read offset correction                      : 48
Overread into Lead-In and Lead-Out          : No
Fill up missing offset samples with silence : Yes
Delete leading and trailing silent blocks   : No
Null samples used in CRC calculations       : Yes
Used interface                              : Installed external ASPI interface
Used output format : Internal WAV Routines
Sample format      : 44.100 Hz; 16 Bit; Stereo
TOC of the extracted CD
     Track |   Start  |  Length  | Start sector | End sector
    ---------------------------------------------------------
        1  |  0:00.00 |  7:51.67 |         0  |       35391
        2  |  7:51.67 |  6:07.22 |     35392  |       62938
        3  | 13:59.14 |  6:15.09 |     62939  |       91072
        4  | 20:14.23 |  5:48.68 |     91073  |      117240
        5  | 26:03.16 |  6:31.25 |    117241  |      146590
        6  | 32:34.41 |  4:29.60 |    146591  |      166825
        7  | 37:04.26 |  3:47.47 |    166826  |      183897
        8  | 40:51.73 |  6:32.61 |    183898  |      213358
        9  | 47:24.59 |  5:43.62 |    213359  |      239145
       10  | 53:08.46 |  5:16.71 |    239146  |      262916
       11  | 58:25.42 |  5:30.39 |    262917  |      287705
Range status and errors
Selected range
   Filename I:\Mechanical Horizon - New Horizons\CDImage.wav
   Peak level 96.4 %
   Range quality 100.0 %
   Test CRC 2FDBBE16
   Copy CRC 2FDBBE16
   Copy OK
No errors occurred
AccurateRip summary
Track  1  accurately ripped (confidence 1)  [78553DBD]
Track  2  accurately ripped (confidence 1)  [285876FE]
Track  3  accurately ripped (confidence 1)  [69390336]
Track  4  accurately ripped (confidence 1)  [258A5AFD]
Track  5  accurately ripped (confidence 1)  [DF888E26]
Track  6  accurately ripped (confidence 1)  [27C647BE]
Track  7  accurately ripped (confidence 1)  [2AD00C37]
Track  8  accurately ripped (confidence 1)  [79671A60]
Track  9  accurately ripped (confidence 1)  [3B4FE2B2]
Track 10  accurately ripped (confidence 1)  [AC42E6DC]
Track 11  accurately ripped (confidence 1)  [C12D0152]
All tracks accurately ripped
End of status report
Код:
AUDIOCHECKER v2.0 beta (build 457) - by Dester - opdester@freemail.hu
~~~~~~~~~~~~~~~~~~~~~~~~~~~~~~~~~~
-=== DO NOT EDIT THIS FILE! ===-
Path: ...\Mechanical Horizon - New Horizons
1 -=- CDImage.wav -=- MPEG (95%)
228546532
Код:
AUDIOCHECKER v2.0 beta (build 457) - by Dester - opdester@freemail.hu
~~~~~~~~~~~~~~~~~~~~~~~~~~~~~~~~~~
-=== DO NOT EDIT THIS FILE! ===-
Path: ...\Mechanical Horizon - New Horizons splitted
01 -=- 01 Promise The Way.wav -=- CDDA (100%)
02 -=- 02 New Horizons.wav -=- MPEG (95%)
03 -=- 03 Exhail.wav -=- CDDA (58%)
04 -=- 04 Reise In Die Unendlichkeit.wav -=- CDDA (86%)
05 -=- 05 Eternity Is Past.wav -=- CDDA (100%)
06 -=- 06 Spread Your Wings.wav -=- CDDA (54%)
07 -=- 07 In Silence.wav -=- CDDA (99%)
08 -=- 08 Deeper Than Devotion.wav -=- CDDA (100%)
09 -=- 09 Tears.wav -=- CDDA (100%)
10 -=- 10 The Chase.wav -=- CDDA (92%)
11 -=- 11 Gottes Vergessenes Hind.wav -=- CDDA (100%)
Summary 81,27% CDDA
241543348
Сканы 600 DPI Tiff в раздаче
Правила, инструкции, FAQ!!!
Торрент  Добавлен [26 июн 2020, 17:36] Скачать торрент Магнет ссылка
Скачать торрент
[ Размер 12.06 КБ / Просмотров 5 ]

Статус
Проверен 
 
Размер  569.1 МБ
Приватный: Нет (DHT включён)
.torrent скачан  0
 


     Отправить личное сообщение
   
Страница 1 из 1
Показать сообщения за:  Поле сортировки  
Начать новую тему Ответить на тему


Сейчас этот форум просматривают: нет зарегистрированных пользователей и гости: 0


Вы не можете начинать темы
Вы не можете отвечать на сообщения
Вы не можете редактировать свои сообщения
Вы не можете удалять свои сообщения
Вы не можете добавлять вложения

Перейти:  
cron