Начать новую тему Ответить на тему
Статистика раздачи
Размер: 2.06 ГБ | Добавлен: 26 июн 2020, 20:41 | Скачали: 0
Сидеров: 0  [0 байт/сек]    Личеров: 0  [0 байт/сек]
Пред. тема | След. тема 

Автор
Сообщение

СообщениеДобавлено: 26 июн 2020, 20:41 

Ответить с цитатой 

Left Spine Down - Дискография (3 студийных альбома, 1 EP)


Жанр: Industrial, Electro
Источник: What.CD

Based in Vancouver, Canada, LEFT SPINE DOWN (also known by the acronym LSD) plays a brand of music called Cyberpunk that fuses the sounds of Industrial, Metal, Punk and Electronica.
The band features Jeremy Inkel of Industrial music legends FRONT LINE ASSEMBLY & NOISE UNIT and has no shortage of firepower both on stage and in the studio.
The band self released their first album entitled the SMARTBOMB EP in June 2007, and it was met with a frenzied reception from fans and critics worldwide. The EP was produced by FRONT LINE ASSEMBLY/NOISE UNIT/UNIT 187's CHRIS PETERSON.
Their full length release FIGHTING FOR VOLTAGE saw the band combining efforts with mastering giant SHAUN THINGVOLD (SKINNY PUPPY/STRAPPING YOUNG LAD/LAMB OF GOD/K-OS) and again with CHRIS PETERSON. The album was released in Canada on April 22, 2008 by Canadian label SYNTHETIC SOUNDS, distributed across Canada by Indie Pool and released on September 23rd 2008 in the USA by BIT RIOT RECORDS/WTII RECORDS.
March 2009 saw the band release VOLTAGE 2.3 REMIXED & REVISTED again on SYNTHETIC SOUNDS and featuring one new original song plus covers of Nirvana's “Territorial Pissings” and Joy Division's “She’s Lost Control”. The album features remixes from a literal who's who of the Industrial music world today including KMFDM, Tim Skold, Revco, Combichrist, XP8, Download, 16 Volt, The Birthday Massacre, Seb Komor and DJ? Acucrack.
In September 2009 the band embarked on a North American tour opening for the REVOLTING COCKS' 'LuBriCaTouR' that sees the band playing major venues along with legendary sideshow performer JIM ROSE. In support of the tour the band released a second remix album this time a Double CD entitled SMARTBOMB 2.3 THE UNDERGROUND MIXES again on SYNTHETIC SOUNDS and featuring artists as diverse as mind.in.a.box, Angelspit, Dismantled, Cyanotic, Memmaker, Psy'Aviah, Decree, Amduscia, Decoded Feedback and Helalyn Flowers to just name a few. The 2nd disc is also an Enhanced CD that features all 3 of the band’s Music Videos in iPod ready format.
October 2009 saw the band take its fight to the European Market via leading Darkrock and Industrial Label DANSE MACABRE RECORDS, who are releasing the bands first two albums in a Double CD entitled FIGHTING FOR VOLTAGE: DELUXE EDITION on October 16th.
The band has been very active in the Vancouver live music scene over the last few years sharing the stage with ohGr, The Birthday Massacre, Combichrist, DOA, Genitorturers, 16Volt, Rabbit Junk and Chemlab to name a few. With work already underway on their follow up LP expected it to drop in Summer 2010.
Источник: http://www.myspace.com/leftspinedown

Альбомы:
Год выпуска диска: 2008
Производитель диска: USA
Аудио кодек: FLAC
Тип рипа: tracks+.cue
Битрейт аудио: lossless
Продолжительность: 69:12
Трэклист:
01. Intro (1:47)
02. U Can't Stop The Bomb (3:46)
03. Ready Or Not (3:51)
04. Reset (4:24)
05. Caught In Time (0:59)
06. Last Daze (4:05)
07. Tape 2: Further Studies And Strategies (0:27)
08. Prozac Nation (4:41)
09. Flip The Switch (3:56)
10. Policy Of Hypocrisy (3:19)
11. Time Holes (1:02)
12. Hang Up (5:25)
13. Future Implosion (1:04)
14. Ignorance Is Piss (3:04)
15. Fighting For Voltage (3:52)
16. Outro (23:23)
Код:
This log is created by Rubyripper, version 0.5.0
Website: [url=http://code.google.com/p/rubyripper]http://code.google.com/p/rubyripper[/url]
Cdrom player used to rip:
HL-DT-ST DVD-ROM GDR8161B 0100
Cdrom offset used: 0
Ripper used: cdparanoia -Z
Matches required for all chunks: 2
Matches required for erroneous chunks: 2
Codec(s) used:
-flac  -> --best (flac 1.2.1)
CDDB INFO
Artist = Left Spine Down
Album = Fighting For Voltage
Year = 2008
Genre = Industrial
Tracks = 16
01 - Intro
02 - U Can't Stop the Bomb
03 - Ready or Not
04 - Reset
05 - Caught In Time
06 - Last Daze
07 - Tape 2: Further Studies & Strategies
08 - Prozac Nation
09 - Flip the Switch
10 - Policy of Hypocrisy
11 - Time Holes
12 - Hang Up
13 - Future Implosion
14 - Ignorance is Piss
15 - Fighting for Voltage
16 - (Secret Track)
STATUS
Starting to rip track 1, trial 1#
Starting to rip track 1, trial 2#
Analyzing files for mismatching chunks
Every chunk matched 2 times  [img]https://static.t-ru.org/smiles/icon_smile.gif[/img]
MD5 sum: a981da395bf0a683cf11ff812f0fc576
Starting to rip track 2, trial 1#
Starting to rip track 2, trial 2#
Analyzing files for mismatching chunks
Every chunk matched 2 times  [img]https://static.t-ru.org/smiles/icon_smile.gif[/img]
MD5 sum: 2815ec503773be82e2e7804cc2fe5f7b
Starting to rip track 3, trial 1#
Starting to rip track 3, trial 2#
Analyzing files for mismatching chunks
Every chunk matched 2 times  [img]https://static.t-ru.org/smiles/icon_smile.gif[/img]
MD5 sum: 4ea637e10efba4da4c260347f045dcf2
Starting to rip track 4, trial 1#
Starting to rip track 4, trial 2#
Analyzing files for mismatching chunks
Every chunk matched 2 times  [img]https://static.t-ru.org/smiles/icon_smile.gif[/img]
MD5 sum: ebb5f66a4a3a33d9434ee737f8dad54e
Starting to rip track 5, trial 1#
Starting to rip track 5, trial 2#
Analyzing files for mismatching chunks
Every chunk matched 2 times  [img]https://static.t-ru.org/smiles/icon_smile.gif[/img]
MD5 sum: 0f11b3eafaf1f2849399e5989f364a6b
Starting to rip track 6, trial 1#
Starting to rip track 6, trial 2#
Analyzing files for mismatching chunks
Every chunk matched 2 times  [img]https://static.t-ru.org/smiles/icon_smile.gif[/img]
MD5 sum: c0b2f7f4e34079253b8afd9c1d59e1c9
Starting to rip track 7, trial 1#
Starting to rip track 7, trial 2#
Analyzing files for mismatching chunks
Every chunk matched 2 times  [img]https://static.t-ru.org/smiles/icon_smile.gif[/img]
MD5 sum: 89a171b18edd19ac59729b59ff3407bc
Starting to rip track 8, trial 1#
Starting to rip track 8, trial 2#
Analyzing files for mismatching chunks
Every chunk matched 2 times  [img]https://static.t-ru.org/smiles/icon_smile.gif[/img]
MD5 sum: 12f30d57906c5949b9846ac0cc31f76e
Starting to rip track 9, trial 1#
Starting to rip track 9, trial 2#
Analyzing files for mismatching chunks
Every chunk matched 2 times  [img]https://static.t-ru.org/smiles/icon_smile.gif[/img]
MD5 sum: 4c1d15abcad0392534504a25c472c3c7
Starting to rip track 10, trial 1#
Starting to rip track 10, trial 2#
Analyzing files for mismatching chunks
Every chunk matched 2 times  [img]https://static.t-ru.org/smiles/icon_smile.gif[/img]
MD5 sum: 79c8628f49f4272a0b592b0cd258e3da
Starting to rip track 11, trial 1#
Starting to rip track 11, trial 2#
Analyzing files for mismatching chunks
Every chunk matched 2 times  [img]https://static.t-ru.org/smiles/icon_smile.gif[/img]
MD5 sum: 5f03c610142e72e879dead7c94e028a1
Starting to rip track 12, trial 1#
Starting to rip track 12, trial 2#
Analyzing files for mismatching chunks
Every chunk matched 2 times  [img]https://static.t-ru.org/smiles/icon_smile.gif[/img]
MD5 sum: 87e986bba765ac691bb5e2853d56be1e
Starting to rip track 13, trial 1#
Starting to rip track 13, trial 2#
Analyzing files for mismatching chunks
Every chunk matched 2 times  [img]https://static.t-ru.org/smiles/icon_smile.gif[/img]
MD5 sum: f4b614b736535f367d099dcfdcb0af80
Starting to rip track 14, trial 1#
Starting to rip track 14, trial 2#
Analyzing files for mismatching chunks
Every chunk matched 2 times  [img]https://static.t-ru.org/smiles/icon_smile.gif[/img]
MD5 sum: c4dfa05360ad474e71fcc90db9e365c4
Starting to rip track 15, trial 1#
Starting to rip track 15, trial 2#
Analyzing files for mismatching chunks
Every chunk matched 2 times  [img]https://static.t-ru.org/smiles/icon_smile.gif[/img]
MD5 sum: f4d8a96bec4749277978c3a97adb6a7f
Starting to rip track 16, trial 1#
Starting to rip track 16, trial 2#
Analyzing files for mismatching chunks
Every chunk matched 2 times  [img]https://static.t-ru.org/smiles/icon_smile.gif[/img]
MD5 sum: b58f842b632d8bd61f99ab2f8be819ad
RIPPING SUMMARY
All chunks were tried to match at least 2  times.
None of the tracks gave any problems
Код:
FILE "dummy.wav" WAVE
  TRACK 01 AUDIO
    INDEX 01 00:00:00
  TRACK 02 AUDIO
    INDEX 01 01:47:03
  TRACK 03 AUDIO
    INDEX 01 05:33:15
  TRACK 04 AUDIO
    INDEX 01 09:24:40
  TRACK 05 AUDIO
    INDEX 01 13:49:22
  TRACK 06 AUDIO
    INDEX 01 14:48:74
  TRACK 07 AUDIO
    INDEX 01 18:54:37
  TRACK 08 AUDIO
    INDEX 01 19:21:61
  TRACK 09 AUDIO
    INDEX 01 24:03:01
  TRACK 10 AUDIO
    INDEX 01 27:59:09
  TRACK 11 AUDIO
    INDEX 01 31:18:68
  TRACK 12 AUDIO
    INDEX 01 32:21:10
  TRACK 13 AUDIO
    INDEX 01 37:46:57
  TRACK 14 AUDIO
    INDEX 01 38:51:08
  TRACK 15 AUDIO
    INDEX 01 41:56:00
  TRACK 16 AUDIO
    INDEX 01 45:48:47
Код:
AUDIOCHECKER v2.0 beta (build 457) - by Dester - opdester@freemail.hu
~~~~~~~~~~~~~~~~~~~~~~~~~~~~~~~~~~
Started at: ñóááîòà, 21. 08. 2010. - 21:25.36
16 files found
01 -===- H:\Left Spine Down\Left Spine Down - [2008] - Fighting For Voltage\04 - Reset.flac
  Extracted successfully
  Conclusion: this track is CDDA with probability 100%
  Tempfile successfully deleted.
02 -===- H:\Left Spine Down\Left Spine Down - [2008] - Fighting For Voltage\05 - Caught In Time.flac
  Extracted successfully
  Conclusion: this track is CDDA with probability 100%
  Tempfile successfully deleted.
03 -===- H:\Left Spine Down\Left Spine Down - [2008] - Fighting For Voltage\06 - Last Daze.flac
  Extracted successfully
  Conclusion: this track is CDDA with probability 100%
  Tempfile successfully deleted.
04 -===- H:\Left Spine Down\Left Spine Down - [2008] - Fighting For Voltage\07 - Tape 2_ Further Studies & Strategies.flac
  Extracted successfully
  Conclusion: this track is CDDA with probability 100%
  Tempfile successfully deleted.
05 -===- H:\Left Spine Down\Left Spine Down - [2008] - Fighting For Voltage\08 - Prozac Nation.flac
  Extracted successfully
  Conclusion: this track is CDDA with probability 100%
  Tempfile successfully deleted.
06 -===- H:\Left Spine Down\Left Spine Down - [2008] - Fighting For Voltage\09 - Flip the Switch.flac
  Extracted successfully
  Conclusion: this track is CDDA with probability 100%
  Tempfile successfully deleted.
07 -===- H:\Left Spine Down\Left Spine Down - [2008] - Fighting For Voltage\10 - Policy of Hypocrisy.flac
  Extracted successfully
  Conclusion: this track is CDDA with probability 100%
  Tempfile successfully deleted.
08 -===- H:\Left Spine Down\Left Spine Down - [2008] - Fighting For Voltage\11 - Time Holes.flac
  Extracted successfully
  Conclusion: this track is CDDA with probability 100%
  Tempfile successfully deleted.
09 -===- H:\Left Spine Down\Left Spine Down - [2008] - Fighting For Voltage\12 - Hang Up.flac
  Extracted successfully
  Conclusion: this track is CDDA with probability 100%
  Tempfile successfully deleted.
10 -===- H:\Left Spine Down\Left Spine Down - [2008] - Fighting For Voltage\13 - Future Implosion.flac
  Extracted successfully
  Conclusion: this track is CDDA with probability 100%
  Tempfile successfully deleted.
11 -===- H:\Left Spine Down\Left Spine Down - [2008] - Fighting For Voltage\14 - Ignorance is Piss.flac
  Extracted successfully
  Conclusion: this track is CDDA with probability 100%
  Tempfile successfully deleted.
12 -===- H:\Left Spine Down\Left Spine Down - [2008] - Fighting For Voltage\15 - Fighting for Voltage.flac
  Extracted successfully
  Conclusion: this track is CDDA with probability 100%
  Tempfile successfully deleted.
13 -===- H:\Left Spine Down\Left Spine Down - [2008] - Fighting For Voltage\16 - (Secret Track).flac
  Extracted successfully
  Conclusion: this track is CDDA with probability 100%
  Tempfile successfully deleted.
14 -===- H:\Left Spine Down\Left Spine Down - [2008] - Fighting For Voltage\01 - Intro.flac
  Extracted successfully
  Conclusion: this track is CDDA with probability 100%
  Tempfile successfully deleted.
15 -===- H:\Left Spine Down\Left Spine Down - [2008] - Fighting For Voltage\02 - U Can't Stop the Bomb.flac
  Extracted successfully
  Conclusion: this track is CDDA with probability 100%
  Tempfile successfully deleted.
16 -===- H:\Left Spine Down\Left Spine Down - [2008] - Fighting For Voltage\03 - Ready or Not.flac
  Extracted successfully
  Conclusion: this track is CDDA with probability 100%
  Tempfile successfully deleted.
Finished at: ñóááîòà, 21. 08. 2010. - 21:34.12 (operation time: 0:08.35)
#777Год выпуска диска: 2009
Производитель диска: USA
Аудио кодек: FLAC
Тип рипа: tracks
Битрейт аудио: lossless
Продолжительность: 119:59
Трэклист:
1-01. Lab Tape 42 Pt 3 - July 22, 1943 (1:23)
1-02. Hang Up - Angelspit Remix (4:02)
1-03. Welcome To The Future - Future 8th Mix By Splatterpunk (6:00)
1-04. Reset - Man & Machines Remix (4:24)
1-05. Last Daze - Memmaker Remix (4:07)
1-06. Lab Tape 42 Pt 2 - Assignment Report (1:16)
1-07. Prozac Nation - Retro Radio Radutron Mix By The Rabid Whole (4:00)
1-08. Hang Up - Tethered Mix By Klaxxon (4:08)
1-09. Reset - Stiff Valentine Remix (4:27)
1-10. Policy Of Hypocrisy - Essence Of Mind Remix (4:59)
1-11. Lab Tape 42 Pt 4 - August 12, 1943 (1:54)
1-12. Prozac Nation - Psy'Aviah Remix (4:07)
1-13. Welcome To The Future - Electro Mix By Decoded Feedback (5:30)
1-14. Reset - Maqlu Remix (3:58)
1-15. Prozac Nation - Helalyn Flowers Remix (5:35)
1-16. Welcome To The Future - Synthetic Dream Foundation Remix (5:42)
1-17. Lab Tape 42 Pt 6 - August 12, 1983 (1:22)
1-18. Controlled Voltage - kAINE-O-Matic Mix By Decree (12:56)
2-01. U Can't Stop The Bomb (Cyanotic Remix) (3:56)
2-02. Reset (Testube Treatment) (4:22)
2-03. Welcome To The Future (Cunt Mix By Amduscia) (5:23)
2-04. Policy Of Hyprocrisy (Shiv-R Remix) (4:30)
2-05. Last Daze (Psykkle Remix) (5:10)
2-06. Last Daze (Everything Goes Cold Remix) (3:37)
2-07. U Cant' Stop The Bomb (Dismantled Remix) (2:47)
2-08. Policy Of Hypocrisy (Mind.In.A.Box Remix) (4:40)
2-09. Last Daze (Los Muertos Mix By Joey Chaos) (5:46)
Код:
This log is created by Rubyripper, version 0.5.7
Website: [url=http://code.google.com/p/rubyripper]http://code.google.com/p/rubyripper[/url]
Cdrom player used to rip:
HL-DT-ST RW/DVD GCC-4521B 1.05
Cdrom offset used: 0
Ripper used: cdparanoia
Matches required for all chunks: 2
Matches required for erroneous chunks: 2
Codec(s) used:
-flac  -> --best -V (flac 1.2.1)
CDDB INFO
Artist = Left Spine Down
Album = Smartbomb 2.3 - The Underground Mixes
Year = 2009
Genre = Industrial
Tracks = 18
01 - Lab Tape 42 Part 3 - July 22, 1943
02 - Hang Up (Angelspit Remix)
03 - Welcome To The Future (The Future 8th Mix by Splatterpunk)
04 - Reset (Man & Machines Remix)
05 - Last Daze (Memmaker Remix)
06 - Lab Tape 42 Part 2 - Assignment Report
07 - Prozac Nation (Retro Radio Radutron Mix by The Rabid Whole)
08 - Hang Up (Tethered Mix by Klaxxon)
09 - Reset (Stiff Valentine Remix)
10 - Policy of Hypocrisy (Essence of Mind Remix)
11 - Lab Tape 42 Part 4 - August 12, 1943
12 - Prozac Nation (Psy'Aviah Remix)
13 - Welcome To The Future (Electro Mix by Decoded Feedback)
14 - Reset (Maglu Remix)
15 - Prozac Nation (Helalyn Flowers Remix)
16 - Welcome To The Future (Synthetic Dream Foundation Remix)
17 - Lab Tape 42 Part 6 - August 12, 1983
18 - Controlled Voltage (kAINE-O-Matic Mix by Decree)
STATUS
Starting to rip track 1, trial #1
Starting to rip track 1, trial #2
Analyzing files for mismatching chunks
Every chunk matched 2 times  [img]https://static.t-ru.org/smiles/icon_smile.gif[/img]
MD5 sum: 2fc833660d9bf1c08289a220db9d9595
Starting to rip track 2, trial #1
Starting to rip track 2, trial #2
Analyzing files for mismatching chunks
Every chunk matched 2 times  [img]https://static.t-ru.org/smiles/icon_smile.gif[/img]
MD5 sum: b6ec282cdf21da38ddecff15910c64b8
Starting to rip track 3, trial #1
Starting to rip track 3, trial #2
Analyzing files for mismatching chunks
Every chunk matched 2 times  [img]https://static.t-ru.org/smiles/icon_smile.gif[/img]
MD5 sum: fbeb1e4746a6585390aebc8f577d388b
Starting to rip track 4, trial #1
Starting to rip track 4, trial #2
Analyzing files for mismatching chunks
Every chunk matched 2 times  [img]https://static.t-ru.org/smiles/icon_smile.gif[/img]
MD5 sum: f081a1002a62949d8c08927e397630ea
Starting to rip track 5, trial #1
Starting to rip track 5, trial #2
Analyzing files for mismatching chunks
Every chunk matched 2 times  [img]https://static.t-ru.org/smiles/icon_smile.gif[/img]
MD5 sum: c4206751725cdd33437b0341bae905bf
Starting to rip track 6, trial #1
Starting to rip track 6, trial #2
Analyzing files for mismatching chunks
Every chunk matched 2 times  [img]https://static.t-ru.org/smiles/icon_smile.gif[/img]
MD5 sum: 2bf49d18a92a52e4e5ea7307e97e6b65
Starting to rip track 7, trial #1
Starting to rip track 7, trial #2
Analyzing files for mismatching chunks
Every chunk matched 2 times  [img]https://static.t-ru.org/smiles/icon_smile.gif[/img]
MD5 sum: ade4704650a7a30d6ed6e721ff1ac2e5
Starting to rip track 8, trial #1
Starting to rip track 8, trial #2
Analyzing files for mismatching chunks
Every chunk matched 2 times  [img]https://static.t-ru.org/smiles/icon_smile.gif[/img]
MD5 sum: ab27b3b5ed6271125edd8b9b6b1c4acf
Starting to rip track 9, trial #1
Starting to rip track 9, trial #2
Analyzing files for mismatching chunks
Every chunk matched 2 times  [img]https://static.t-ru.org/smiles/icon_smile.gif[/img]
MD5 sum: a08a1cd1c148331f878e9ab65e2166e6
Starting to rip track 10, trial #1
Starting to rip track 10, trial #2
Analyzing files for mismatching chunks
Every chunk matched 2 times  [img]https://static.t-ru.org/smiles/icon_smile.gif[/img]
MD5 sum: e380ed2c6d59e2d31536d01592a17cf3
Starting to rip track 11, trial #1
Starting to rip track 11, trial #2
Analyzing files for mismatching chunks
Every chunk matched 2 times  [img]https://static.t-ru.org/smiles/icon_smile.gif[/img]
MD5 sum: 0bc793f4b6b064c0ec94901060418ea7
Starting to rip track 12, trial #1
Starting to rip track 12, trial #2
Analyzing files for mismatching chunks
Every chunk matched 2 times  [img]https://static.t-ru.org/smiles/icon_smile.gif[/img]
MD5 sum: b25dd8b395489b0c37bb515fbb2d8f4a
Starting to rip track 13, trial #1
Starting to rip track 13, trial #2
Analyzing files for mismatching chunks
Every chunk matched 2 times  [img]https://static.t-ru.org/smiles/icon_smile.gif[/img]
MD5 sum: 2d306fc4520645904be33d62b54a9f0c
Starting to rip track 14, trial #1
Starting to rip track 14, trial #2
Analyzing files for mismatching chunks
Every chunk matched 2 times  [img]https://static.t-ru.org/smiles/icon_smile.gif[/img]
MD5 sum: 01fe00c93bc12ad82ce8ac0f74917d55
Starting to rip track 15, trial #1
Starting to rip track 15, trial #2
Analyzing files for mismatching chunks
Every chunk matched 2 times  [img]https://static.t-ru.org/smiles/icon_smile.gif[/img]
MD5 sum: 9ab29c02a9ded61e1e4fd765939a1b74
Starting to rip track 16, trial #1
Starting to rip track 16, trial #2
Analyzing files for mismatching chunks
Every chunk matched 2 times  [img]https://static.t-ru.org/smiles/icon_smile.gif[/img]
MD5 sum: fd4f9af763ca211becbdb64e1fb94951
Starting to rip track 17, trial #1
Starting to rip track 17, trial #2
Analyzing files for mismatching chunks
Every chunk matched 2 times  [img]https://static.t-ru.org/smiles/icon_smile.gif[/img]
MD5 sum: 903c8fcb9d3100881d8626e1b77a86d5
Starting to rip track 18, trial #1
Starting to rip track 18, trial #2
Analyzing files for mismatching chunks
Every chunk matched 2 times  [img]https://static.t-ru.org/smiles/icon_smile.gif[/img]
MD5 sum: c7c07308214bc284622301658b60127d
RIPPING SUMMARY
All chunks were tried to match at least 2 times.
None of the tracks gave any problems
Код:
Exact Audio Copy V0.99 prebeta 5 from 4. May 2009
EAC extraction logfile from 25. February 2010, 0:24
Left Spine Down / Smartbomb 2.3: The Underground Mixes (Disc 2)
Used drive  : HL-DT-STRW/DVD GCC-4521B   Adapter: 3  ID: 0
Read mode               : Secure
Utilize accurate stream : Yes
Defeat audio cache      : No
Make use of C2 pointers : Yes
Combined read/write offset correction       : 0
Overread into Lead-In and Lead-Out          : No
Fill up missing offset samples with silence : Yes
Delete leading and trailing silent blocks   : No
Null samples used in CRC calculations       : No
Used interface                              : Native Win32 interface for Win NT & 2000
Gap handling                                : Not detected, thus appended to previous track
Used output format              : User Defined Encoder
Selected bitrate                : 768 kBit/s
Quality                         : High
Add ID3 tag                     : No
Command line compressor         : C:\Program Files\Exact Audio Copy\FLAC\FLAC.EXE
Additional command line options : -6 -V -T "ARTIST=%a" -T "TITLE=%t" -T "ALBUM=%g" -T "DATE=%y" -T "TRACKNUMBER=%n" -T "GENRE=%m" -T "COMMENT=%e" %s -o %d
TOC of the extracted CD
     Track |   Start  |  Length  | Start sector | End sector
    ---------------------------------------------------------
        1  |  0:00.00 | 14:30.71 |         0    |    65320
        2  | 14:30.71 |  3:55.45 |     65321    |    82990
        3  | 18:26.41 |  4:21.57 |     82991    |   102622
        4  | 22:48.23 |  5:23.37 |    102623    |   126884
        5  | 28:11.60 |  4:29.40 |    126885    |   147099
        6  | 32:41.25 |  5:09.66 |    147100    |   170340
        7  | 37:51.16 |  3:37.17 |    170341    |   186632
        8  | 41:28.33 |  2:46.51 |    186633    |   199133
        9  | 44:15.09 |  4:39.51 |    199134    |   220109
       10  | 48:54.60 |  5:45.53 |    220110    |   246037
Track  2
     Filename C:\Documents and Settings\Bob Wentz\Desktop\Left Spine Down\Smartbomb 2.3- The Underground Mixes (Disc 2)\02. Track02.wav
     Peak level 98.8 %
     Track quality 100.0 %
     Test CRC 08963B7F
     Copy CRC 08963B7F
     Copy OK
Track  3
     Filename C:\Documents and Settings\Bob Wentz\Desktop\Left Spine Down\Smartbomb 2.3- The Underground Mixes (Disc 2)\03. Track03.wav
     Peak level 96.4 %
     Track quality 100.0 %
     Test CRC AD505BB3
     Copy CRC AD505BB3
     Copy OK
Track  4
     Filename C:\Documents and Settings\Bob Wentz\Desktop\Left Spine Down\Smartbomb 2.3- The Underground Mixes (Disc 2)\04. Track04.wav
     Peak level 65.1 %
     Track quality 100.0 %
     Test CRC 98E446D9
     Copy CRC 98E446D9
     Copy OK
Track  5
     Filename C:\Documents and Settings\Bob Wentz\Desktop\Left Spine Down\Smartbomb 2.3- The Underground Mixes (Disc 2)\05. Track05.wav
     Peak level 98.0 %
     Track quality 100.0 %
     Test CRC F859FD36
     Copy CRC F859FD36
     Copy OK
Track  6
     Filename C:\Documents and Settings\Bob Wentz\Desktop\Left Spine Down\Smartbomb 2.3- The Underground Mixes (Disc 2)\06. Track06.wav
     Peak level 93.3 %
     Track quality 100.0 %
     Test CRC 050B16A5
     Copy CRC 050B16A5
     Copy OK
Track  7
     Filename C:\Documents and Settings\Bob Wentz\Desktop\Left Spine Down\Smartbomb 2.3- The Underground Mixes (Disc 2)\07. Track07.wav
     Peak level 98.0 %
     Track quality 100.0 %
     Test CRC EF4EBA02
     Copy CRC EF4EBA02
     Copy OK
Track  8
     Filename C:\Documents and Settings\Bob Wentz\Desktop\Left Spine Down\Smartbomb 2.3- The Underground Mixes (Disc 2)\08. Track08.wav
     Peak level 76.0 %
     Track quality 100.0 %
     Test CRC DAEA6BA8
     Copy CRC DAEA6BA8
     Copy OK
Track  9
     Filename C:\Documents and Settings\Bob Wentz\Desktop\Left Spine Down\Smartbomb 2.3- The Underground Mixes (Disc 2)\09. Track09.wav
     Peak level 90.9 %
     Track quality 100.0 %
     Test CRC 76CC2E3C
     Copy CRC 76CC2E3C
     Copy OK
Track 10
     Filename C:\Documents and Settings\Bob Wentz\Desktop\Left Spine Down\Smartbomb 2.3- The Underground Mixes (Disc 2)\10. Track10.wav
     Peak level 98.8 %
     Track quality 100.0 %
     Test CRC 103A6CBB
     Copy CRC 103A6CBB
     Copy OK
No errors occurred
End of status report
Код:
AUDIOCHECKER v2.0 beta (build 457) - by Dester - opdester@freemail.hu
~~~~~~~~~~~~~~~~~~~~~~~~~~~~~~~~~~
Started at: ñóááîòà, 21. 08. 2010. - 21:38.00
27 files found
01 -===- H:\Left Spine Down\Left Spine Down - [2009] - Smartbomb 2.3 - The Underground Mixes (2CD)\CD1 - 12. Prozac Nation (Psy'Aviah Remix).flac
  Extracted successfully
  Conclusion: this track is CDDA with probability 99%
  Tempfile successfully deleted.
02 -===- H:\Left Spine Down\Left Spine Down - [2009] - Smartbomb 2.3 - The Underground Mixes (2CD)\CD1 - 13. Welcome To The Future (Electro Mix by Decoded Feedback).flac
  Extracted successfully
  Conclusion: this track is CDDA with probability 100%
  Tempfile successfully deleted.
03 -===- H:\Left Spine Down\Left Spine Down - [2009] - Smartbomb 2.3 - The Underground Mixes (2CD)\CD1 - 14. Reset (Maglu Remix).flac
  Extracted successfully
  Conclusion: this track is CDDA with probability 100%
  Tempfile successfully deleted.
04 -===- H:\Left Spine Down\Left Spine Down - [2009] - Smartbomb 2.3 - The Underground Mixes (2CD)\CD1 - 15. Prozac Nation (Helalyn Flowers Remix).flac
  Extracted successfully
  Conclusion: this track is CDDA with probability 100%
  Tempfile successfully deleted.
05 -===- H:\Left Spine Down\Left Spine Down - [2009] - Smartbomb 2.3 - The Underground Mixes (2CD)\CD1 - 16. Welcome To The Future (Synthetic Dream Foundation Remix).flac
  Extracted successfully
  Conclusion: this track is CDDA with probability 100%
  Tempfile successfully deleted.
06 -===- H:\Left Spine Down\Left Spine Down - [2009] - Smartbomb 2.3 - The Underground Mixes (2CD)\CD1 - 17. Lab Tape 42 Part 6 - August 12, 1983.flac
  Extracted successfully
  Conclusion: this track is CDDA with probability 100%
  Tempfile successfully deleted.
07 -===- H:\Left Spine Down\Left Spine Down - [2009] - Smartbomb 2.3 - The Underground Mixes (2CD)\CD1 - 18. Controlled Voltage (kAINE-O-Matic Mix by Decree).flac
  Extracted successfully
  Conclusion: this track is CDDA with probability 100%
  Tempfile successfully deleted.
08 -===- H:\Left Spine Down\Left Spine Down - [2009] - Smartbomb 2.3 - The Underground Mixes (2CD)\CD2 - 02. U can't Stop The Bomb (Cyanotic Remix).flac
  Extracted successfully
  Conclusion: this track is CDDA with probability 100%
  Tempfile successfully deleted.
09 -===- H:\Left Spine Down\Left Spine Down - [2009] - Smartbomb 2.3 - The Underground Mixes (2CD)\CD2 - 03. Reset (Testube Treatment).flac
  Extracted successfully
  Conclusion: this track is CDDA with probability 100%
  Tempfile successfully deleted.
10 -===- H:\Left Spine Down\Left Spine Down - [2009] - Smartbomb 2.3 - The Underground Mixes (2CD)\CD2 - 04. Welcome To The Future (Cunt Mix by Amduscia).flac
  Extracted successfully
  Conclusion: this track is CDDA with probability 100%
  Tempfile successfully deleted.
11 -===- H:\Left Spine Down\Left Spine Down - [2009] - Smartbomb 2.3 - The Underground Mixes (2CD)\CD2 - 05. Policy of Hypocrisy (Shiv-r Remix).flac
  Extracted successfully
  Conclusion: this track is CDDA with probability 100%
  Tempfile successfully deleted.
12 -===- H:\Left Spine Down\Left Spine Down - [2009] - Smartbomb 2.3 - The Underground Mixes (2CD)\CD2 - 06. Last Daze (Psykkle Remix).flac
  Extracted successfully
  Conclusion: this track is CDDA with probability 100%
  Tempfile successfully deleted.
13 -===- H:\Left Spine Down\Left Spine Down - [2009] - Smartbomb 2.3 - The Underground Mixes (2CD)\CD2 - 07. Last Daze (Everything Goes Cold Remix).flac
  Extracted successfully
  Conclusion: this track is CDDA with probability 100%
  Tempfile successfully deleted.
14 -===- H:\Left Spine Down\Left Spine Down - [2009] - Smartbomb 2.3 - The Underground Mixes (2CD)\CD2 - 08. U Can't Stop The Bomb (Dismantled Remix).flac
  Extracted successfully
  Conclusion: this track is CDDA with probability 100%
  Tempfile successfully deleted.
15 -===- H:\Left Spine Down\Left Spine Down - [2009] - Smartbomb 2.3 - The Underground Mixes (2CD)\CD2 - 09. Policy of Hypocrisy (Mind.In.A.Box Remix).flac
  Extracted successfully
  Conclusion: this track is CDDA with probability 100%
  Tempfile successfully deleted.
16 -===- H:\Left Spine Down\Left Spine Down - [2009] - Smartbomb 2.3 - The Underground Mixes (2CD)\CD2 - 10. Last Daze (Los Muertos Mix by Joey Chaos).flac
  Extracted successfully
  Conclusion: this track is CDDA with probability 100%
  Tempfile successfully deleted.
17 -===- H:\Left Spine Down\Left Spine Down - [2009] - Smartbomb 2.3 - The Underground Mixes (2CD)\CD1 - 01. Lab Tape 42 Part 3 - July 22, 1943.flac
  Extracted successfully
  Conclusion: this track is CDDA with probability 100%
  Tempfile successfully deleted.
18 -===- H:\Left Spine Down\Left Spine Down - [2009] - Smartbomb 2.3 - The Underground Mixes (2CD)\CD1 - 02. Hang Up (Angelspit Remix).flac
  Extracted successfully
  Conclusion: this track is CDDA with probability 100%
  Tempfile successfully deleted.
19 -===- H:\Left Spine Down\Left Spine Down - [2009] - Smartbomb 2.3 - The Underground Mixes (2CD)\CD1 - 03. Welcome To The Future (The Future 8th Mix by Splatterpunk).flac
  Extracted successfully
  Conclusion: this track is CDDA with probability 100%
  Tempfile successfully deleted.
20 -===- H:\Left Spine Down\Left Spine Down - [2009] - Smartbomb 2.3 - The Underground Mixes (2CD)\CD1 - 04. Reset (Man & Machines Remix).flac
  Extracted successfully
  Conclusion: this track is CDDA with probability 100%
  Tempfile successfully deleted.
21 -===- H:\Left Spine Down\Left Spine Down - [2009] - Smartbomb 2.3 - The Underground Mixes (2CD)\CD1 - 05. Last Daze (Memmaker Remix).flac
  Extracted successfully
  Conclusion: this track is CDDA with probability 99%
  Tempfile successfully deleted.
22 -===- H:\Left Spine Down\Left Spine Down - [2009] - Smartbomb 2.3 - The Underground Mixes (2CD)\CD1 - 06. Lab Tape 42 Part 2 - Assignment Report.flac
  Extracted successfully
  Conclusion: this track is CDDA with probability 100%
  Tempfile successfully deleted.
23 -===- H:\Left Spine Down\Left Spine Down - [2009] - Smartbomb 2.3 - The Underground Mixes (2CD)\CD1 - 07. Prozac Nation (Retro Radio Radutron Mix by The Rabid Whole).flac
  Extracted successfully
  Conclusion: this track is CDDA with probability 100%
  Tempfile successfully deleted.
24 -===- H:\Left Spine Down\Left Spine Down - [2009] - Smartbomb 2.3 - The Underground Mixes (2CD)\CD1 - 08. Hang Up (Tethered Mix by Klaxxon).flac
  Extracted successfully
  Conclusion: this track is CDDA with probability 100%
  Tempfile successfully deleted.
25 -===- H:\Left Spine Down\Left Spine Down - [2009] - Smartbomb 2.3 - The Underground Mixes (2CD)\CD1 - 09. Reset (Stiff Valentine Remix).flac
  Extracted successfully
  Conclusion: this track is CDDA with probability 100%
  Tempfile successfully deleted.
26 -===- H:\Left Spine Down\Left Spine Down - [2009] - Smartbomb 2.3 - The Underground Mixes (2CD)\CD1 - 10. Policy of Hypocrisy (Essence of Mind Remix).flac
  Extracted successfully
  Conclusion: this track is CDDA with probability 43%
  Tempfile successfully deleted.
27 -===- H:\Left Spine Down\Left Spine Down - [2009] - Smartbomb 2.3 - The Underground Mixes (2CD)\CD1 - 11. Lab Tape 42 Part 4 - August 12, 1943.flac
  Extracted successfully
  Conclusion: this track is CDDA with probability 100%
  Tempfile successfully deleted.
Finished at: ñóááîòà, 21. 08. 2010. - 21:53.23 (operation time: 0:15.23)
#777Год выпуска диска: 2009
Производитель диска: USA
Аудио кодек: FLAC
Тип рипа: tracks+.cue
Битрейт аудио: lossless
Продолжительность: 78:56
Трэклист:
01. Tape 8: (Worm Holes) (1:05)
02. Reset (Melt Mix) (4:42)
03. Prozac Nation (Tim Skold Mix) (6:08)
04. Tape 4: (Test Subject Phase 1) (0:40)
05. She's Lost Control (4:58)
06. Ready Or Not (Hairlip Smacker Mix) (4:42)
07. Last Daze (Burning Electro Mix) (4:25)
08. Hang Up (Cracknation Mix) (5:23)
09. Tape 23: (Pharmaceutical Analysis) (1:47)
10. Policy Of Hyprocrisy (Philthy Download Mix) (4:47)
11. Last Daze (XP8 Mix) (4:28)
12. Territorial Pissings (2:32)
13. Reset (Baal Mix) (4:45)
14. Flick The Stitch (KMFDM Mix) (4:11)
15. Last Daze (Led Manville Mix) (5:14)
16. Tape 18: (Status Report #3) (0:43)
17. Welcome To The Future (5:05)
18. Reset (16Volt Mix) (4:48)
19. Last Daze (Funland Mix) (3:42)
20. Fighting For Voltage (LSD Mix) (4:51)
Код:
Exact Audio Copy V0.99 prebeta 4 from 23. January 2008
EAC extraction logfile from 14. May 2010, 23:33
Left Spine Down / VOLTAGE 2.3 - Remixed and Revisited
Used drive  : ATAPI   DVD A  DH16A6L-C   Adapter: 2  ID: 0
Read mode               : Secure
Utilize accurate stream : Yes
Defeat audio cache      : Yes
Make use of C2 pointers : No
Read offset correction                      : 6
Overread into Lead-In and Lead-Out          : No
Fill up missing offset samples with silence : Yes
Delete leading and trailing silent blocks   : No
Null samples used in CRC calculations       : Yes
Used interface                              : Native Win32 interface for Win NT & 2000
Gap handling                                : Appended to previous track
Used output format              : User Defined Encoder
Selected bitrate                : 320 kBit/s
Quality                         : High
Add ID3 tag                     : No
Command line compressor         : C:\Program Files\Exact Audio Copy\FLAC\FLAC.EXE
Additional command line options : -V -8 -T "artist=%a" -T "title=%t" -T "album=%g" -T "date=%y" -T "tracknumber=%n" -T "genre=%m" %s
TOC of the extracted CD
     Track |   Start  |  Length  | Start sector | End sector
    ---------------------------------------------------------
        1  |  0:00.00 |  1:04.64 |         0    |     4863
        2  |  1:04.64 |  4:41.72 |      4864    |    26010
        3  |  5:46.61 |  6:08.02 |     26011    |    53612
        4  | 11:54.63 |  0:39.60 |     53613    |    56597
        5  | 12:34.48 |  4:57.55 |     56598    |    78927
        6  | 17:32.28 |  4:42.30 |     78928    |   100107
        7  | 22:14.58 |  4:25.33 |    100108    |   120015
        8  | 26:40.16 |  5:22.63 |    120016    |   144228
        9  | 32:03.04 |  1:46.72 |    144229    |   152250
       10  | 33:50.01 |  4:46.58 |    152251    |   173758
       11  | 38:36.59 |  4:27.56 |    173759    |   193839
       12  | 43:04.40 |  2:32.35 |    193840    |   205274
       13  | 45:37.00 |  4:45.14 |    205275    |   226663
       14  | 50:22.14 |  4:10.47 |    226664    |   245460
       15  | 54:32.61 |  5:14.37 |    245461    |   269047
       16  | 59:47.23 |  0:43.13 |    269048    |   272285
       17  | 60:30.36 |  5:05.26 |    272286    |   295186
       18  | 65:35.62 |  4:47.40 |    295187    |   316751
       19  | 70:23.27 |  3:41.74 |    316752    |   333400
       20  | 74:05.26 |  4:51.04 |    333401    |   355229
Track  1
     Filename C:\CD Rips and Lossless Audio\Left Spine Down - 2009 - VOLTAGE 2.3 - Remixed and Revisited [FLAC]\01 - Tape 8- Worm Holes.wav
     Pre-gap length  0:00:02.00
     Peak level 68.5 %
     Track quality 100.0 %
     Test CRC 57143731
     Copy CRC 57143731
     Accurately ripped (confidence 3)  [F40876B2]
     Copy OK
Track  2
     Filename C:\CD Rips and Lossless Audio\Left Spine Down - 2009 - VOLTAGE 2.3 - Remixed and Revisited [FLAC]\02 - Reset (Melt Mix by Seb Komor).wav
     Peak level 98.9 %
     Track quality 100.0 %
     Test CRC BE3C4FE6
     Copy CRC BE3C4FE6
     Accurately ripped (confidence 3)  [BA30EE25]
     Copy OK
Track  3
     Filename C:\CD Rips and Lossless Audio\Left Spine Down - 2009 - VOLTAGE 2.3 - Remixed and Revisited [FLAC]\03 - Prozac Nation (Tim Skold Mix).wav
     Peak level 98.9 %
     Track quality 100.0 %
     Test CRC 02E0462B
     Copy CRC 02E0462B
     Accurately ripped (confidence 3)  [4D446162]
     Copy OK
Track  4
     Filename C:\CD Rips and Lossless Audio\Left Spine Down - 2009 - VOLTAGE 2.3 - Remixed and Revisited [FLAC]\04 - Tape 4- Test Subject Phase 1.wav
     Peak level 48.4 %
     Track quality 100.0 %
     Test CRC AC92852E
     Copy CRC AC92852E
     Accurately ripped (confidence 3)  [39745CCE]
     Copy OK
Track  5
     Filename C:\CD Rips and Lossless Audio\Left Spine Down - 2009 - VOLTAGE 2.3 - Remixed and Revisited [FLAC]\05 - She's Lost Control (Joy Division cover).wav
     Peak level 98.9 %
     Track quality 100.0 %
     Test CRC 7AB5C75B
     Copy CRC 7AB5C75B
     Accurately ripped (confidence 3)  [2A218B43]
     Copy OK
Track  6
     Filename C:\CD Rips and Lossless Audio\Left Spine Down - 2009 - VOLTAGE 2.3 - Remixed and Revisited [FLAC]\06 - Ready or Not (Hairlip Smacker Mix by The Revolting Cocks).wav
     Peak level 98.9 %
     Track quality 100.0 %
     Test CRC 8C96CDFF
     Copy CRC 8C96CDFF
     Accurately ripped (confidence 3)  [818BA1E8]
     Copy OK
Track  7
     Filename C:\CD Rips and Lossless Audio\Left Spine Down - 2009 - VOLTAGE 2.3 - Remixed and Revisited [FLAC]\07 - Last Daze (Burning Electro Mix by Combichrist).wav
     Peak level 98.9 %
     Track quality 100.0 %
     Test CRC 8ADE6898
     Copy CRC 8ADE6898
     Accurately ripped (confidence 3)  [2418F2D8]
     Copy OK
Track  8
     Filename C:\CD Rips and Lossless Audio\Left Spine Down - 2009 - VOLTAGE 2.3 - Remixed and Revisited [FLAC]\08 - Hang Up (Cracknation Mix by DJ Acucrack).wav
     Peak level 98.9 %
     Track quality 100.0 %
     Test CRC 4CB8E835
     Copy CRC 4CB8E835
     Accurately ripped (confidence 3)  [E4466D8C]
     Copy OK
Track  9
     Filename C:\CD Rips and Lossless Audio\Left Spine Down - 2009 - VOLTAGE 2.3 - Remixed and Revisited [FLAC]\09 - Policy of Hypocrisy (Philthy Download Mix).wav
     Peak level 66.3 %
     Track quality 100.0 %
     Test CRC 82FF3FCD
     Copy CRC 82FF3FCD
     Accurately ripped (confidence 3)  [9DC43E59]
     Copy OK
Track 10
     Filename C:\CD Rips and Lossless Audio\Left Spine Down - 2009 - VOLTAGE 2.3 - Remixed and Revisited [FLAC]\10 - Last Daze (XP8 Mix).wav
     Peak level 98.9 %
     Track quality 100.0 %
     Test CRC 96D426AB
     Copy CRC 96D426AB
     Accurately ripped (confidence 3)  [0739BEDF]
     Copy OK
Track 11
     Filename C:\CD Rips and Lossless Audio\Left Spine Down - 2009 - VOLTAGE 2.3 - Remixed and Revisited [FLAC]\11 - Territorial Pissings (Nirvana cover).wav
     Peak level 98.9 %
     Track quality 100.0 %
     Test CRC 384DE283
     Copy CRC 384DE283
     Accurately ripped (confidence 3)  [D8203D81]
     Copy OK
Track 12
     Filename C:\CD Rips and Lossless Audio\Left Spine Down - 2009 - VOLTAGE 2.3 - Remixed and Revisited [FLAC]\12 - Reset (Baal Mix).wav
     Peak level 98.9 %
     Track quality 100.0 %
     Test CRC 9311005E
     Copy CRC 9311005E
     Accurately ripped (confidence 3)  [F98B8B1C]
     Copy OK
Track 13
     Filename C:\CD Rips and Lossless Audio\Left Spine Down - 2009 - VOLTAGE 2.3 - Remixed and Revisited [FLAC]\13 - Hang Up (Angelspit Mix).wav
     Peak level 98.9 %
     Track quality 100.0 %
     Test CRC 1F570EFE
     Copy CRC 1F570EFE
     Accurately ripped (confidence 3)  [62D520B0]
     Copy OK
Track 14
     Filename C:\CD Rips and Lossless Audio\Left Spine Down - 2009 - VOLTAGE 2.3 - Remixed and Revisited [FLAC]\14 - Flip The Switch (Flick The Stitch by KMFDM).wav
     Peak level 98.9 %
     Track quality 100.0 %
     Test CRC 203050BE
     Copy CRC 203050BE
     Accurately ripped (confidence 3)  [5E751CC4]
     Copy OK
Track 15
     Filename C:\CD Rips and Lossless Audio\Left Spine Down - 2009 - VOLTAGE 2.3 - Remixed and Revisited [FLAC]\15 - Last Daze (Led Manville Mix).wav
     Peak level 98.9 %
     Track quality 100.0 %
     Test CRC 857DCCE9
     Copy CRC 857DCCE9
     Accurately ripped (confidence 3)  [D0081687]
     Copy OK
Track 16
     Filename C:\CD Rips and Lossless Audio\Left Spine Down - 2009 - VOLTAGE 2.3 - Remixed and Revisited [FLAC]\16 - Tape 18- Status Report #3.wav
     Peak level 58.7 %
     Track quality 99.7 %
     Test CRC 4F7259A4
     Copy CRC 4F7259A4
     Accurately ripped (confidence 3)  [48ACB6CD]
     Copy OK
Track 17
     Filename C:\CD Rips and Lossless Audio\Left Spine Down - 2009 - VOLTAGE 2.3 - Remixed and Revisited [FLAC]\17 - Welcome To The Future.wav
     Peak level 98.9 %
     Track quality 100.0 %
     Test CRC 503C76F0
     Copy CRC 503C76F0
     Accurately ripped (confidence 3)  [0CEC381F]
     Copy OK
Track 18
     Filename C:\CD Rips and Lossless Audio\Left Spine Down - 2009 - VOLTAGE 2.3 - Remixed and Revisited [FLAC]\18 - Reset (16 Volt Mix).wav
     Peak level 98.9 %
     Track quality 99.9 %
     Test CRC CF14CD32
     Copy CRC CF14CD32
     Accurately ripped (confidence 3)  [B2E6B9F7]
     Copy OK
Track 19
     Filename C:\CD Rips and Lossless Audio\Left Spine Down - 2009 - VOLTAGE 2.3 - Remixed and Revisited [FLAC]\19 - Last Daze (Funland Mix by Birthday Massacre).wav
     Peak level 98.9 %
     Track quality 100.0 %
     Test CRC 33617AAF
     Copy CRC 33617AAF
     Accurately ripped (confidence 3)  [A4F1BBAE]
     Copy OK
Track 20
     Filename C:\CD Rips and Lossless Audio\Left Spine Down - 2009 - VOLTAGE 2.3 - Remixed and Revisited [FLAC]\20 - Fighting for Voltage (LSD mix by Chris Peterson and Jeremy Inkel).wav
     Peak level 98.9 %
     Track quality 100.0 %
     Test CRC 13051854
     Copy CRC 13051854
     Accurately ripped (confidence 3)  [C057DE68]
     Copy OK
All tracks accurately ripped
No errors occurred
End of status report
Код:
REM GENRE Industrial
REM DATE 2009
REM DISCID 24128014
REM COMMENT "ExactAudioCopy v0.99pb4"
PERFORMER "Left Spine Down"
TITLE "VOLTAGE 2.3 - Remixed and Revisited"
FILE "Left Spine Down - 2009 - VOLTAGE 2.3 - Remixed and Revisited [FLAC]\01 - Tape 8- Worm Holes.wav" WAVE
  TRACK 01 AUDIO
    TITLE "Tape 8: Worm Holes"
    PERFORMER "Left Spine Down"
    INDEX 01 00:00:00
FILE "Left Spine Down - 2009 - VOLTAGE 2.3 - Remixed and Revisited [FLAC]\02 - Reset (Melt Mix by Seb Komor).wav" WAVE
  TRACK 02 AUDIO
    TITLE "Reset (Melt Mix by Seb Komor)"
    PERFORMER "Left Spine Down"
    INDEX 01 00:00:00
FILE "Left Spine Down - 2009 - VOLTAGE 2.3 - Remixed and Revisited [FLAC]\03 - Prozac Nation (Tim Skold Mix).wav" WAVE
  TRACK 03 AUDIO
    TITLE "Prozac Nation (Tim Skold Mix)"
    PERFORMER "Left Spine Down"
    INDEX 01 00:00:00
FILE "Left Spine Down - 2009 - VOLTAGE 2.3 - Remixed and Revisited [FLAC]\04 - Tape 4- Test Subject Phase 1.wav" WAVE
  TRACK 04 AUDIO
    TITLE "Tape 4: Test Subject Phase 1"
    PERFORMER "Left Spine Down"
    INDEX 01 00:00:00
FILE "Left Spine Down - 2009 - VOLTAGE 2.3 - Remixed and Revisited [FLAC]\05 - She's Lost Control (Joy Division cover).wav" WAVE
  TRACK 05 AUDIO
    TITLE "She's Lost Control (Joy Division cover)"
    PERFORMER "Left Spine Down"
    INDEX 01 00:00:00
FILE "Left Spine Down - 2009 - VOLTAGE 2.3 - Remixed and Revisited [FLAC]\06 - Ready or Not (Hairlip Smacker Mix by The Revolting Cocks).wav" WAVE
  TRACK 06 AUDIO
    TITLE "Ready or Not (Hairlip Smacker Mix by The Revolting Cocks)"
    PERFORMER "Left Spine Down"
    INDEX 01 00:00:00
FILE "Left Spine Down - 2009 - VOLTAGE 2.3 - Remixed and Revisited [FLAC]\07 - Last Daze (Burning Electro Mix by Combichrist).wav" WAVE
  TRACK 07 AUDIO
    TITLE "Last Daze (Burning Electro Mix by Combichrist)"
    PERFORMER "Left Spine Down"
    INDEX 01 00:00:00
FILE "Left Spine Down - 2009 - VOLTAGE 2.3 - Remixed and Revisited [FLAC]\08 - Hang Up (Cracknation Mix by DJ Acucrack).wav" WAVE
  TRACK 08 AUDIO
    TITLE "Hang Up (Cracknation Mix by DJ Acucrack)"
    PERFORMER "Left Spine Down"
    INDEX 01 00:00:00
FILE "Left Spine Down - 2009 - VOLTAGE 2.3 - Remixed and Revisited [FLAC]\09 - Policy of Hypocrisy (Philthy Download Mix).wav" WAVE
  TRACK 09 AUDIO
    TITLE "Policy of Hypocrisy (Philthy Download Mix)"
    PERFORMER "Left Spine Down"
    INDEX 01 00:00:00
FILE "Left Spine Down - 2009 - VOLTAGE 2.3 - Remixed and Revisited [FLAC]\10 - Last Daze (XP8 Mix).wav" WAVE
  TRACK 10 AUDIO
    TITLE "Last Daze (XP8 Mix)"
    PERFORMER "Left Spine Down"
    INDEX 01 00:00:00
FILE "Left Spine Down - 2009 - VOLTAGE 2.3 - Remixed and Revisited [FLAC]\11 - Territorial Pissings (Nirvana cover).wav" WAVE
  TRACK 11 AUDIO
    TITLE "Territorial Pissings (Nirvana cover)"
    PERFORMER "Left Spine Down"
    INDEX 01 00:00:00
FILE "Left Spine Down - 2009 - VOLTAGE 2.3 - Remixed and Revisited [FLAC]\12 - Reset (Baal Mix).wav" WAVE
  TRACK 12 AUDIO
    TITLE "Reset (Baal Mix)"
    PERFORMER "Left Spine Down"
    INDEX 01 00:00:00
FILE "Left Spine Down - 2009 - VOLTAGE 2.3 - Remixed and Revisited [FLAC]\13 - Hang Up (Angelspit Mix).wav" WAVE
  TRACK 13 AUDIO
    TITLE "Hang Up (Angelspit Mix)"
    PERFORMER "Left Spine Down"
    INDEX 01 00:00:00
FILE "Left Spine Down - 2009 - VOLTAGE 2.3 - Remixed and Revisited [FLAC]\14 - Flip The Switch (Flick The Stitch by KMFDM).wav" WAVE
  TRACK 14 AUDIO
    TITLE "Flip The Switch (Flick The Stitch by KMFDM)"
    PERFORMER "Left Spine Down"
    INDEX 01 00:00:00
FILE "Left Spine Down - 2009 - VOLTAGE 2.3 - Remixed and Revisited [FLAC]\15 - Last Daze (Led Manville Mix).wav" WAVE
  TRACK 15 AUDIO
    TITLE "Last Daze (Led Manville Mix)"
    PERFORMER "Left Spine Down"
    INDEX 01 00:00:00
FILE "Left Spine Down - 2009 - VOLTAGE 2.3 - Remixed and Revisited [FLAC]\16 - Tape 18- Status Report #3.wav" WAVE
  TRACK 16 AUDIO
    TITLE "Tape 18: Status Report #3"
    PERFORMER "Left Spine Down"
    INDEX 01 00:00:00
FILE "Left Spine Down - 2009 - VOLTAGE 2.3 - Remixed and Revisited [FLAC]\17 - Welcome To The Future.wav" WAVE
  TRACK 17 AUDIO
    TITLE "Welcome To The Future"
    PERFORMER "Left Spine Down"
    INDEX 01 00:00:00
FILE "Left Spine Down - 2009 - VOLTAGE 2.3 - Remixed and Revisited [FLAC]\18 - Reset (16 Volt Mix).wav" WAVE
  TRACK 18 AUDIO
    TITLE "Reset (16 Volt Mix)"
    PERFORMER "Left Spine Down"
    INDEX 01 00:00:00
FILE "Left Spine Down - 2009 - VOLTAGE 2.3 - Remixed and Revisited [FLAC]\19 - Last Daze (Funland Mix by Birthday Massacre).wav" WAVE
  TRACK 19 AUDIO
    TITLE "Last Daze (Funland Mix by Birthday Massacre)"
    PERFORMER "Left Spine Down"
    INDEX 01 00:00:00
FILE "Left Spine Down - 2009 - VOLTAGE 2.3 - Remixed and Revisited [FLAC]\20 - Fighting for Voltage (LSD mix by Chris Peterson and Jeremy Inkel).wav" WAVE
  TRACK 20 AUDIO
    TITLE "Fighting for Voltage (LSD mix by Chris Peterson and Jeremy Inkel)"
    PERFORMER "Left Spine Down"
    INDEX 01 00:00:00
Код:
AUDIOCHECKER v2.0 beta (build 457) - by Dester - opdester@freemail.hu
~~~~~~~~~~~~~~~~~~~~~~~~~~~~~~~~~~
Started at: ñóááîòà, 21. 08. 2010. - 21:58.00
20 files found
01 -===- H:\Left Spine Down\Left Spine Down - [2009] - Voltage 2.3 (Remixed & Revisited)\01 - Tape 8- Worm Holes.flac
  Extracted successfully
  Conclusion: this track is CDDA with probability 100%
  Tempfile successfully deleted.
02 -===- H:\Left Spine Down\Left Spine Down - [2009] - Voltage 2.3 (Remixed & Revisited)\02 - Reset (Melt Mix by Seb Komor).flac
  Extracted successfully
  Conclusion: this track is CDDA with probability 99%
  Tempfile successfully deleted.
03 -===- H:\Left Spine Down\Left Spine Down - [2009] - Voltage 2.3 (Remixed & Revisited)\03 - Prozac Nation (Tim Skold Mix).flac
  Extracted successfully
  Conclusion: this track is CDDA with probability 100%
  Tempfile successfully deleted.
04 -===- H:\Left Spine Down\Left Spine Down - [2009] - Voltage 2.3 (Remixed & Revisited)\04 - Tape 4- Test Subject Phase 1.flac
  Extracted successfully
  Conclusion: this track is CDDA with probability 100%
  Tempfile successfully deleted.
05 -===- H:\Left Spine Down\Left Spine Down - [2009] - Voltage 2.3 (Remixed & Revisited)\05 - She's Lost Control (Joy Division cover).flac
  Extracted successfully
  Conclusion: this track is CDDA with probability 100%
  Tempfile successfully deleted.
06 -===- H:\Left Spine Down\Left Spine Down - [2009] - Voltage 2.3 (Remixed & Revisited)\06 - Ready or Not (Hairlip Smacker Mix by The Revolting Cocks).flac
  Extracted successfully
  Conclusion: this track is CDDA with probability 100%
  Tempfile successfully deleted.
07 -===- H:\Left Spine Down\Left Spine Down - [2009] - Voltage 2.3 (Remixed & Revisited)\07 - Last Daze (Burning Electro Mix by Combichrist).flac
  Extracted successfully
  Conclusion: this track is CDDA with probability 100%
  Tempfile successfully deleted.
08 -===- H:\Left Spine Down\Left Spine Down - [2009] - Voltage 2.3 (Remixed & Revisited)\08 - Hang Up (Cracknation Mix by DJ Acucrack).flac
  Extracted successfully
  Conclusion: this track is CDDA with probability 100%
  Tempfile successfully deleted.
09 -===- H:\Left Spine Down\Left Spine Down - [2009] - Voltage 2.3 (Remixed & Revisited)\09 - Policy of Hypocrisy (Philthy Download Mix).flac
  Extracted successfully
  Conclusion: this track is CDDA with probability 100%
  Tempfile successfully deleted.
10 -===- H:\Left Spine Down\Left Spine Down - [2009] - Voltage 2.3 (Remixed & Revisited)\10 - Last Daze (XP8 Mix).flac
  Extracted successfully
  Conclusion: this track is CDDA with probability 100%
  Tempfile successfully deleted.
11 -===- H:\Left Spine Down\Left Spine Down - [2009] - Voltage 2.3 (Remixed & Revisited)\11 - Territorial Pissings (Nirvana cover).flac
  Extracted successfully
  Conclusion: this track is CDDA with probability 100%
  Tempfile successfully deleted.
12 -===- H:\Left Spine Down\Left Spine Down - [2009] - Voltage 2.3 (Remixed & Revisited)\12 - Reset (Baal Mix).flac
  Extracted successfully
  Conclusion: this track is CDDA with probability 100%
  Tempfile successfully deleted.
13 -===- H:\Left Spine Down\Left Spine Down - [2009] - Voltage 2.3 (Remixed & Revisited)\13 - Hang Up (Angelspit Mix).flac
  Extracted successfully
  Conclusion: this track is CDDA with probability 99%
  Tempfile successfully deleted.
14 -===- H:\Left Spine Down\Left Spine Down - [2009] - Voltage 2.3 (Remixed & Revisited)\14 - Flip The Switch (Flick The Stitch by KMFDM).flac
  Extracted successfully
  Conclusion: this track is CDDA with probability 100%
  Tempfile successfully deleted.
15 -===- H:\Left Spine Down\Left Spine Down - [2009] - Voltage 2.3 (Remixed & Revisited)\15 - Last Daze (Led Manville Mix).flac
  Extracted successfully
  Conclusion: this track is CDDA with probability 100%
  Tempfile successfully deleted.
16 -===- H:\Left Spine Down\Left Spine Down - [2009] - Voltage 2.3 (Remixed & Revisited)\16 - Tape 18- Status Report #3.flac
  Extracted successfully
  Conclusion: this track is CDDA with probability 100%
  Tempfile successfully deleted.
17 -===- H:\Left Spine Down\Left Spine Down - [2009] - Voltage 2.3 (Remixed & Revisited)\17 - Welcome To The Future.flac
  Extracted successfully
  Conclusion: this track is CDDA with probability 100%
  Tempfile successfully deleted.
18 -===- H:\Left Spine Down\Left Spine Down - [2009] - Voltage 2.3 (Remixed & Revisited)\18 - Reset (16 Volt Mix).flac
  Extracted successfully
  Conclusion: this track is CDDA with probability 100%
  Tempfile successfully deleted.
19 -===- H:\Left Spine Down\Left Spine Down - [2009] - Voltage 2.3 (Remixed & Revisited)\19 - Last Daze (Funland Mix by Birthday Massacre).flac
  Extracted successfully
  Conclusion: this track is CDDA with probability 100%
  Tempfile successfully deleted.
20 -===- H:\Left Spine Down\Left Spine Down - [2009] - Voltage 2.3 (Remixed & Revisited)\20 - Fighting for Voltage (LSD mix by Chris Peterson and Jeremy Inkel).flac
  Extracted successfully
  Conclusion: this track is CDDA with probability 100%
  Tempfile successfully deleted.
Finished at: ñóááîòà, 21. 08. 2010. - 22:07.28 (operation time: 0:09.28)

EP:
#777Год выпуска диска: 2007
Производитель диска: USA
Аудио кодек: FLAC
Тип рипа: tracks+.cue
Битрейт аудио: lossless
Продолжительность: 17:53
Трэклист:
01. Last Daze (4:07)
02. Reset (4:26)
03. Hang Up (5:26)
04. Ready Or Not (3:53)
Код:
This log is created by Rubyripper, version 0.5.0
Website: [url=http://code.google.com/p/rubyripper]http://code.google.com/p/rubyripper[/url]
Cdrom player used to rip:
HL-DT-ST DVD-ROM GDR8161B 0100
Cdrom offset used: 0
Ripper used: cdparanoia -Z
Matches required for all chunks: 2
Matches required for erroneous chunks: 2
Codec(s) used:
-flac  -> --best (flac 1.2.1)
CDDB INFO
Artist = Left Spine Down
Album = Smartbomb
Year = 2007
Genre = Industrial
Tracks = 4
01 - Last Daze
02 - Reset
03 - Hang Up
04 - Ready or Not
STATUS
Starting to rip track 1, trial 1#
Starting to rip track 1, trial 2#
Analyzing files for mismatching chunks
Every chunk matched 2 times  [img]https://static.t-ru.org/smiles/icon_smile.gif[/img]
MD5 sum: d8c6833f8dce5d18b3cd349072c47694
Starting to rip track 2, trial 1#
Starting to rip track 2, trial 2#
Analyzing files for mismatching chunks
Every chunk matched 2 times  [img]https://static.t-ru.org/smiles/icon_smile.gif[/img]
MD5 sum: c6336e3b36b87aa84203278f1e95a192
Starting to rip track 3, trial 1#
Starting to rip track 3, trial 2#
Analyzing files for mismatching chunks
Every chunk matched 2 times  [img]https://static.t-ru.org/smiles/icon_smile.gif[/img]
MD5 sum: c9e76d5d636a894d313513156dc127d2
Starting to rip track 4, trial 1#
Starting to rip track 4, trial 2#
Analyzing files for mismatching chunks
Every chunk matched 2 times  [img]https://static.t-ru.org/smiles/icon_smile.gif[/img]
MD5 sum: 1eec45f537327da4fda4fb8fe6d144dd
RIPPING SUMMARY
All chunks were tried to match at least 2  times.
None of the tracks gave any problems
Код:
FILE "dummy.wav" WAVE
  TRACK 01 AUDIO
    INDEX 01 00:00:00
  TRACK 02 AUDIO
    INDEX 01 04:07:09
  TRACK 03 AUDIO
    INDEX 01 08:33:49
  TRACK 04 AUDIO
    INDEX 01 14:00:16
Код:
AUDIOCHECKER v2.0 beta (build 457) - by Dester - opdester@freemail.hu
~~~~~~~~~~~~~~~~~~~~~~~~~~~~~~~~~~
Started at: ñóááîòà, 21. 08. 2010. - 21:54.07
4 files found
1 -===- H:\Left Spine Down\Left Spine Down - [2007] - Smartbomb (EP)\02 - Reset.flac
  Extracted successfully
  Conclusion: this track is CDDA with probability 100%
  Tempfile successfully deleted.
2 -===- H:\Left Spine Down\Left Spine Down - [2007] - Smartbomb (EP)\03 - Hang Up.flac
  Extracted successfully
  Conclusion: this track is CDDA with probability 100%
  Tempfile successfully deleted.
3 -===- H:\Left Spine Down\Left Spine Down - [2007] - Smartbomb (EP)\04 - Ready or Not.flac
  Extracted successfully
  Conclusion: this track is CDDA with probability 100%
  Tempfile successfully deleted.
4 -===- H:\Left Spine Down\Left Spine Down - [2007] - Smartbomb (EP)\01 - Last Daze.flac
  Extracted successfully
  Conclusion: this track is CDDA with probability 100%
  Tempfile successfully deleted.
Finished at: ñóááîòà, 21. 08. 2010. - 21:56.15 (operation time: 0:02.08)
Правила, инструкции, FAQ!!!
Торрент  Добавлен [26 июн 2020, 20:41] Скачать торрент Магнет ссылка
Скачать торрент
[ Размер 22 КБ / Просмотров 10 ]

Статус
Проверен 
 
Размер  2.06 ГБ
Приватный: Нет (DHT включён)
.torrent скачан  0
 


     Отправить личное сообщение
   
Страница 1 из 1
Показать сообщения за:  Поле сортировки  
Начать новую тему Ответить на тему


Сейчас этот форум просматривают: нет зарегистрированных пользователей и гости: 0


Вы не можете начинать темы
Вы не можете отвечать на сообщения
Вы не можете редактировать свои сообщения
Вы не можете удалять свои сообщения
Вы не можете добавлять вложения

Перейти:  
cron