Начать новую тему Ответить на тему
Статистика раздачи
Размер: 369.91 МБ | Добавлен: 26 июн 2020, 20:54 | Скачали: 0
Сидеров: 0  [0 байт/сек]    Личеров: 0  [0 байт/сек]
Пред. тема | След. тема 

Автор
Сообщение

СообщениеДобавлено: 26 июн 2020, 20:54 

Ответить с цитатой 

Leaether Strip - The Rebirth of Agony
Жанр: Industrial, Electro
Год выпуска диска: 1996
Производитель диска: Германия
Аудио кодек: FLAC
Тип рипа: tracks+.cue
Битрейт аудио: lossless
Продолжительность: 55:51.49
Трэклист:
01. You Know Where To Put It
02. Life Is Painful (Bastard)
03. Switch On - Switch Off
04. Lies To Tell
05. My Mind Is My Master
06. How Do I Know
07. The Edge Of Anger
08. I Want You Hard
09. Take Care Of Me
10. Anger Is A Part Of Me
11. Make My Blood Boil
12. Fool!
Exact Audio Copy V0.99 prebeta 4 from 23. January 2008
EAC extraction logfile from 18. September 2008, 4:30
Leжther Strip / The Rebirth of Agony
Used drive : TSSTcorpCD/DVDW SH-W162Z Adapter: 5 ID: 0
Read mode : Secure
Utilize accurate stream : Yes
Defeat audio cache : No
Make use of C2 pointers : Yes
Read offset correction : 6
Overread into Lead-In and Lead-Out : No
Fill up missing offset samples with silence : Yes
Delete leading and trailing silent blocks : No
Null samples used in CRC calculations : Yes
Used interface : Native Win32 interface for Win NT & 2000
Gap handling : Appended to previous track
Used output format : User Defined Encoder
Selected bitrate : 224 kBit/s
Quality : High
Add ID3 tag : No
Command line compressor : C:\Program Files\Exact Audio Copy\Flac\flac.exe
Additional command line options : -V -8 -T "artist=%a" -T "title=%t" -T "album=%g" -T "date=%y" -T "tracknumber=%n" -T "genre=%m" %s
TOC of the extracted CD
Track | Start | Length | Start sector | End sector
---------------------------------------------------------
1 | 0:00.00 | 4:21.71 | 0 | 19645
2 | 4:21.71 | 5:06.74 | 19646 | 42669
3 | 9:28.70 | 4:48.14 | 42670 | 64283
4 | 14:17.09 | 5:41.44 | 64284 | 89902
5 | 19:58.53 | 5:24.25 | 89903 | 114227
6 | 25:23.03 | 5:25.17 | 114228 | 138619
7 | 30:48.20 | 5:27.19 | 138620 | 163163
8 | 36:15.39 | 4:24.08 | 163164 | 182971
9 | 40:39.47 | 5:29.14 | 182972 | 207660
10 | 46:08.61 | 4:57.25 | 207661 | 229960
11 | 51:06.11 | 4:45.38 | 229961 | 251373
12 | 55:51.49 | 2:53.57 | 251374 | 264405
Track 1
Filename H:\hear encoding\leжther strip\leжther strip - the rebirth of agony flac\Leжther Strip - The Rebirth of Agony - 01 - You Know Where to Put It.wav
Pre-gap length 0:00:02.00
Peak level 100.0 %
Track quality 100.0 %
Test CRC 6353882F
Copy CRC 6353882F
Accurately ripped (confidence 12) [80160FDE]
Copy OK
Track 2
Filename H:\hear encoding\leжther strip\leжther strip - the rebirth of agony flac\Leжther Strip - The Rebirth of Agony - 02 - Life Is Painful (Bastard).wav
Pre-gap length 0:00:01.45
Peak level 100.0 %
Track quality 100.0 %
Test CRC FA3A3DAD
Copy CRC FA3A3DAD
Accurately ripped (confidence 12) [61DC8494]
Copy OK
Track 3
Filename H:\hear encoding\leжther strip\leжther strip - the rebirth of agony flac\Leжther Strip - The Rebirth of Agony - 03 - Switch On -- Switch Off.wav
Pre-gap length 0:00:01.45
Peak level 100.0 %
Track quality 100.0 %
Test CRC D5B71230
Copy CRC D5B71230
Accurately ripped (confidence 12) [9B65F00B]
Copy OK
Track 4
Filename H:\hear encoding\leжther strip\leжther strip - the rebirth of agony flac\Leжther Strip - The Rebirth of Agony - 04 - Lies to Tell.wav
Pre-gap length 0:00:01.45
Peak level 100.0 %
Track quality 100.0 %
Test CRC 14AC31B2
Copy CRC 14AC31B2
Accurately ripped (confidence 12) [FD258288]
Copy OK
Track 5
Filename H:\hear encoding\leжther strip\leжther strip - the rebirth of agony flac\Leжther Strip - The Rebirth of Agony - 05 - My Mind Is My Master.wav
Pre-gap length 0:00:01.45
Peak level 100.0 %
Track quality 100.0 %
Test CRC CD7573F8
Copy CRC CD7573F8
Accurately ripped (confidence 12) [F547B85E]
Copy OK
Track 6
Filename H:\hear encoding\leжther strip\leжther strip - the rebirth of agony flac\Leжther Strip - The Rebirth of Agony - 06 - How Do I Know .wav
Pre-gap length 0:00:01.45
Peak level 100.0 %
Track quality 100.0 %
Test CRC 00736BE1
Copy CRC 00736BE1
Accurately ripped (confidence 12) [91BCF642]
Copy OK
Track 7
Filename H:\hear encoding\leжther strip\leжther strip - the rebirth of agony flac\Leжther Strip - The Rebirth of Agony - 07 - The Edge of Anger.wav
Pre-gap length 0:00:01.45
Peak level 100.0 %
Track quality 100.0 %
Test CRC E6A1A58C
Copy CRC E6A1A58C
Accurately ripped (confidence 12) [CE3FECD0]
Copy OK
Track 8
Filename H:\hear encoding\leжther strip\leжther strip - the rebirth of agony flac\Leжther Strip - The Rebirth of Agony - 08 - I Want You Hard.wav
Pre-gap length 0:00:01.45
Peak level 99.6 %
Track quality 100.0 %
Test CRC BCD4D48C
Copy CRC BCD4D48C
Accurately ripped (confidence 12) [B08B4B93]
Copy OK
Track 9
Filename H:\hear encoding\leжther strip\leжther strip - the rebirth of agony flac\Leжther Strip - The Rebirth of Agony - 09 - Take Care of Me.wav
Pre-gap length 0:00:01.45
Peak level 100.0 %
Track quality 100.0 %
Test CRC DFF2126A
Copy CRC DFF2126A
Accurately ripped (confidence 12) [99B90421]
Copy OK
Track 10
Filename H:\hear encoding\leжther strip\leжther strip - the rebirth of agony flac\Leжther Strip - The Rebirth of Agony - 10 - Anger Is Part of Me.wav
Pre-gap length 0:00:01.45
Peak level 100.0 %
Track quality 100.0 %
Test CRC 953330F7
Copy CRC 953330F7
Accurately ripped (confidence 11) [CD46A2BF]
Copy OK
Track 11
Filename H:\hear encoding\leжther strip\leжther strip - the rebirth of agony flac\Leжther Strip - The Rebirth of Agony - 11 - Make My Blood Boil.wav
Pre-gap length 0:00:01.45
Peak level 100.0 %
Track quality 100.0 %
Test CRC A3699146
Copy CRC A3699146
Accurately ripped (confidence 11) [06AE1184]
Copy OK
Track 12
Filename H:\hear encoding\leжther strip\leжther strip - the rebirth of agony flac\Leжther Strip - The Rebirth of Agony - 12 - Fool!.wav
Pre-gap length 0:00:01.45
Peak level 100.0 %
Track quality 100.0 %
Test CRC 0373BCB2
Copy CRC 0373BCB2
Accurately ripped (confidence 11) [5394DD4F]
Copy OK
All tracks accurately ripped
No errors occurred
End of status report
AUDIOCHECKER v2.0 beta (build 457) - by Dester - opdester@freemail.hu
~~~~~~~~~~~~~~~~~~~~~~~~~~~~~~~~~~
-=== DO NOT EDIT THIS FILE! ===-
Path: ...\The Rebirth of Agony [1996]
01 -=- Leaether Strip - The Rebirth of Agony - 01 - You Know Where to Put It.flac -=- CDDA (100%)
02 -=- Leaether Strip - The Rebirth of Agony - 02 - Life Is Painful (Bastard).flac -=- CDDA (100%)
03 -=- Leaether Strip - The Rebirth of Agony - 03 - Switch On -- Switch Off.flac -=- CDDA (100%)
04 -=- Leaether Strip - The Rebirth of Agony - 04 - Lies to Tell.flac -=- CDDA (100%)
05 -=- Leaether Strip - The Rebirth of Agony - 05 - My Mind Is My Master.flac -=- CDDA (100%)
06 -=- Leaether Strip - The Rebirth of Agony - 06 - How Do I Know .flac -=- CDDA (100%)
07 -=- Leaether Strip - The Rebirth of Agony - 07 - The Edge of Anger.flac -=- CDDA (100%)
08 -=- Leaether Strip - The Rebirth of Agony - 08 - I Want You Hard.flac -=- CDDA (100%)
09 -=- Leaether Strip - The Rebirth of Agony - 09 - Take Care of Me.flac -=- CDDA (100%)
10 -=- Leaether Strip - The Rebirth of Agony - 10 - Anger Is Part of Me.flac -=- CDDA (86%)
11 -=- Leaether Strip - The Rebirth of Agony - 11 - Make My Blood Boil.flac -=- CDDA (100%)
12 -=- Leaether Strip - The Rebirth of Agony - 12 - Fool!.flac -=- CDDA (100%)
Summary 98,83% CDDA
231190084
Доп. информация:
Label: Zoth Ommog
Catalog#: CD ZOT 161
Format: CD, Album
Country: Germany
Released: 1996
Genre: Electronic
Style: Industrial, Electro
Credits: Artwork By [Coverworks] - Gerhard Scheitza
Music By, Lyrics By, Composed By, Recorded By, Mixed By, Mastered By, Artwork By [Picture Editing & Drawings] - Claus Larsen
Notes: This album was composed, recorded, mixed and mastered at Strip Farm 1996.
Данный релиз, был успешно подготовлен, благодаря maxmin, за что ему огромное спасибо!
Правила, инструкции, FAQ!!!
Торрент  Добавлен [26 июн 2020, 20:54] Скачать торрент Магнет ссылка
Скачать торрент
[ Размер 9.24 КБ / Просмотров 9 ]

Статус
Проверен 
 
Размер  369.91 МБ
Приватный: Нет (DHT включён)
.torrent скачан  0
 


     Отправить личное сообщение
   
Страница 1 из 1
Показать сообщения за:  Поле сортировки  
Начать новую тему Ответить на тему


Сейчас этот форум просматривают: нет зарегистрированных пользователей и гости: 0


Вы не можете начинать темы
Вы не можете отвечать на сообщения
Вы не можете редактировать свои сообщения
Вы не можете удалять свои сообщения
Вы не можете добавлять вложения

Перейти:  
cron