Начать новую тему Ответить на тему
Статистика раздачи
Размер: 2.17 ГБ | Добавлен: 26 июн 2020, 20:41 | Скачали: 0
Сидеров: 0  [0 байт/сек]    Личеров: 0  [0 байт/сек]
Пред. тема | След. тема 

Автор
Сообщение

СообщениеДобавлено: 26 июн 2020, 20:41 

Ответить с цитатой 

Krystal System - Discography (7CD) [Alfa Matrix] (AM2119DCD, AM3029DJ, AM2169DCD, AM1199DCD)
Жанр: Electronic / Industrial / Rock
Стиль: Electro / EBM
Страна-производитель диска: Belgium
Год издания диска: 2008-2013
Издатель (лейбл): Alfa Matrix
Номер по каталогу: AM2119DCD / AM3029DJ / AM2169DCD / AM2199DCD
Аудиокодек: FLAC (*.flac)
Тип рипа: image+.cue
Битрейт аудио: lossless (957 kbps)
Продолжительность: 5:23:02.013
Краткая информация о Krystal System:
Состав: Bonnie и N°7
Дата рождения группы: 2006
Место рождения: France
Лейбл: Alfa Matrix


Студийные альбомы
#777Жанр: Electronic / Rock
Стиль: EBM / Electro / Goth Rock
Битрейт аудио: 987 kbps
Лейбл: Alfa Matrix
Каталог#: AM2119DCD
Продолжительность: 57:47 (CD1) + 35:42 (CD2)
Треклист:
CD1 - Underground
1. Underground
2. Mental
3. I love my chains
4. Instar
5. New World
6. The day I died
7. Slice
8. Alakor
9. Demain n'existe pas
10. Idols
11. Something you hate
12. Elektrostal
13. Krystal Song
CD2 - Underground Remix
1. Slice (remix by Essence of Mind)
2. I love my chains (Dirty hands mix by Implant)
3. Demain n'existe pas (Londen's burning remix by Implant)
4. I love my chains (remix by b.o.s.c.h.)
5. Slice (remix by Psy'Aviah)
6. Alakor (Leaether Strip version)
7. I love my chains (remix by Angels on acid)
8. Idols (remix by Neverdice)
9. I love my chains (SiSeN + Takuya angel remix)
Код:
Exact Audio Copy V0.99 prebeta 5 from 4. May 2009
EAC extraction logfile from 25. March 2011, 0:57
Krystal System / Underground
Used drive  : HL-DT-STDVDRAM GSA-T50N   Adapter: 1  ID: 0
Read mode               : Secure
Utilize accurate stream : Yes
Defeat audio cache      : Yes
Make use of C2 pointers : No
Read offset correction                      : 667
Overread into Lead-In and Lead-Out          : No
Fill up missing offset samples with silence : Yes
Delete leading and trailing silent blocks   : No
Null samples used in CRC calculations       : Yes
Used interface                              : Native Win32 interface for Win NT & 2000
Used output format              : User Defined Encoder
Selected bitrate                : 768 kBit/s
Quality                         : High
Add ID3 tag                     : No
Command line compressor         : C:\Program Files (x86)\Exact Audio Copy\Flac\flac.exe
Additional command line options : -8 -V %s
TOC of the extracted CD
     Track |   Start  |  Length  | Start sector | End sector
    ---------------------------------------------------------
        1  |  0:00.00 |  3:35.11 |         0    |    16135
        2  |  3:35.11 |  5:11.25 |     16136    |    39485
        3  |  8:46.36 |  3:00.06 |     39486    |    52991
        4  | 11:46.42 |  4:47.34 |     52992    |    74550
        5  | 16:34.01 |  4:49.62 |     74551    |    96287
        6  | 21:23.63 |  3:59.59 |     96288    |   114271
        7  | 25:23.47 |  3:15.35 |    114272    |   128931
        8  | 28:39.07 |  4:20.17 |    128932    |   148448
        9  | 32:59.24 |  4:52.09 |    148449    |   170357
       10  | 37:51.33 |  3:53.50 |    170358    |   187882
       11  | 41:45.08 |  4:02.54 |    187883    |   206086
       12  | 45:47.62 |  4:07.65 |    206087    |   224676
       13  | 49:55.52 |  7:51.63 |    224677    |   260064
Range status and errors
Selected range
     Filename F:\Music\[Lossless]\Krystal System\Krystal System - Underground (2CD Limited Edition) (2008)\CD1\Krystal System - Underground (CD1).wav
     Peak level 100.0 %
     Range quality 100.0 %
     Test CRC 6A8EBE26
     Copy CRC 6A8EBE26
     Copy OK
No errors occurred
AccurateRip summary
Track  1  accurately ripped (confidence 3)  [B818FD54]
Track  2  accurately ripped (confidence 3)  [38E8CBB2]
Track  3  accurately ripped (confidence 3)  [3CC87A19]
Track  4  accurately ripped (confidence 3)  [1D849DF4]
Track  5  accurately ripped (confidence 3)  [8C417AAC]
Track  6  accurately ripped (confidence 3)  [C4E83174]
Track  7  accurately ripped (confidence 3)  [804E5FAD]
Track  8  accurately ripped (confidence 3)  [A9971350]
Track  9  accurately ripped (confidence 3)  [CA92D600]
Track 10  accurately ripped (confidence 3)  [8EC324C1]
Track 11  accurately ripped (confidence 3)  [336A2FA8]
Track 12  accurately ripped (confidence 3)  [4D232C11]
Track 13  accurately ripped (confidence 3)  [C3297D2E]
All tracks accurately ripped
End of status report
Код:
Exact Audio Copy V0.99 prebeta 5 from 4. May 2009
EAC extraction logfile from 25. March 2011, 1:22
Krystal System / CD 02 Underground remix
Used drive  : HL-DT-STDVDRAM GSA-T50N   Adapter: 1  ID: 0
Read mode               : Secure
Utilize accurate stream : Yes
Defeat audio cache      : Yes
Make use of C2 pointers : No
Read offset correction                      : 667
Overread into Lead-In and Lead-Out          : No
Fill up missing offset samples with silence : Yes
Delete leading and trailing silent blocks   : No
Null samples used in CRC calculations       : Yes
Used interface                              : Native Win32 interface for Win NT & 2000
Used output format              : User Defined Encoder
Selected bitrate                : 768 kBit/s
Quality                         : High
Add ID3 tag                     : No
Command line compressor         : C:\Program Files (x86)\Exact Audio Copy\Flac\flac.exe
Additional command line options : -8 -V %s
TOC of the extracted CD
     Track |   Start  |  Length  | Start sector | End sector
    ---------------------------------------------------------
        1  |  0:00.00 |  3:35.45 |         0    |    16169
        2  |  3:35.45 |  2:23.40 |     16170    |    26934
        3  |  5:59.10 |  4:06.08 |     26935    |    45392
        4  | 10:05.18 |  2:53.67 |     45393    |    58434
        5  | 12:59.10 |  3:17.51 |     58435    |    73260
        6  | 16:16.61 |  6:03.34 |     73261    |   100519
        7  | 22:20.20 |  3:55.50 |    100520    |   118194
        8  | 26:15.70 |  3:23.67 |    118195    |   133486
        9  | 29:39.62 |  6:02.69 |    133487    |   160705
Range status and errors
Selected range
     Filename F:\Music\[Lossless]\Krystal System\Krystal System - Underground (2CD Limited Edition) (2008)\CD2\Krystal System - CD 02 Underground remix.wav
     Peak level 100.0 %
     Range quality 100.0 %
     Test CRC C43F56EA
     Copy CRC C43F56EA
     Copy OK
No errors occurred
AccurateRip summary
Track  1  accurately ripped (confidence 2)  [344FA257]
Track  2  accurately ripped (confidence 2)  [8F93FC79]
Track  3  accurately ripped (confidence 2)  [1424D361]
Track  4  accurately ripped (confidence 2)  [149FCCBB]
Track  5  accurately ripped (confidence 2)  [CF1AAEE7]
Track  6  accurately ripped (confidence 2)  [EFC6CBD9]
Track  7  accurately ripped (confidence 2)  [26DA3F88]
Track  8  accurately ripped (confidence 2)  [9696A552]
Track  9  accurately ripped (confidence 2)  [1E30EEA4]
All tracks accurately ripped
End of status report
Код:
AUDIOCHECKER v2.0 beta (build 457) - by Dester - opdester@freemail.hu
~~~~~~~~~~~~~~~~~~~~~~~~~~~~~~~~~~
-=== DO NOT EDIT THIS FILE! ===-
Path: ...\CD1
1 -=- Krystal System - Underground (CD1).flac -=- CDDA (100%)
119281092
Код:
AUDIOCHECKER v2.0 beta (build 457) - by Dester - opdester@freemail.hu
~~~~~~~~~~~~~~~~~~~~~~~~~~~~~~~~~~
-=== DO NOT EDIT THIS FILE! ===-
Path: ...\CD2
1 -=- Krystal System - CD 02 Underground remix.flac -=- CDDA (100%)
131003780
#777Жанр: Electronic
Стиль: EBM / Electro / Industrial
Битрейт аудио: 931 kbps
Лейбл: Alfa Matrix
Каталог#: AM2169DCD
Продолжительность: 54:41 (CD1) + 56:27 (CD2)
Треклист:
CD1 - Nuclear
1. Fiction
2. Un Etat D'hypnose
3. World Is Calling
4. So Long
5. Automatic Ideology
6. Rat Track
7. Nuclear Winter
8. Iron Song
9. Requiem
10. Nowhere
11. Around The World
12. Le Chaos
13. Sanctuary
14. Le Chaos (Radio Edit)
CD2 - Nuclear Electronik Projekt
1. Dead World (Unpublished)
2. Around The World (Territory Vision)
3. Nuclear Winter (Not Alone Remix)
4. So Long (Never Surrender Mix)
5. Nuclear Winter (Quatre Vingt Quatre Remix)
6. Automatic Ideology (BerlinindusDrill69)
7. Around The World (Edit)
8. Fiction (Whisper Version)
9. Un Etat D'hypnose (Apocalyptic Side Remix)
10. Sanctuary (Ethan Fawkes Remix)
11. Automatic Ideology (Maxi Vinyl)
12. White Light (Original Iron Song Version)
13. Le Chaos (Final Tape)
Код:
Exact Audio Copy V0.99 prebeta 5 from 4. May 2009
EAC extraction logfile from 28. June 2011, 18:01
Krystal System / Nuclear
Used drive  : HL-DT-STDVDRAM GSA-T50N   Adapter: 1  ID: 0
Read mode               : Secure
Utilize accurate stream : Yes
Defeat audio cache      : Yes
Make use of C2 pointers : No
Read offset correction                      : 667
Overread into Lead-In and Lead-Out          : No
Fill up missing offset samples with silence : Yes
Delete leading and trailing silent blocks   : No
Null samples used in CRC calculations       : Yes
Used interface                              : Native Win32 interface for Win NT & 2000
Used output format              : User Defined Encoder
Selected bitrate                : 768 kBit/s
Quality                         : High
Add ID3 tag                     : No
Command line compressor         : C:\Program Files (x86)\Exact Audio Copy\Flac\flac.exe
Additional command line options : -8 -V %s
TOC of the extracted CD
     Track |   Start  |  Length  | Start sector | End sector
    ---------------------------------------------------------
        1  |  0:00.00 |  4:10.57 |         0    |    18806
        2  |  4:10.57 |  4:18.54 |     18807    |    38210
        3  |  8:29.36 |  3:50.61 |     38211    |    55521
        4  | 12:20.22 |  3:32.39 |     55522    |    71460
        5  | 15:52.61 |  3:30.07 |     71461    |    87217
        6  | 19:22.68 |  3:38.63 |     87218    |   103630
        7  | 23:01.56 |  4:11.37 |    103631    |   122492
        8  | 27:13.18 |  3:45.27 |    122493    |   139394
        9  | 30:58.45 |  3:21.24 |    139395    |   154493
       10  | 34:19.69 |  3:37.43 |    154494    |   170811
       11  | 37:57.37 |  4:45.09 |    170812    |   192195
       12  | 42:42.46 |  4:10.52 |    192196    |   210997
       13  | 46:53.23 |  4:12.26 |    210998    |   229923
       14  | 51:05.49 |  3:35.71 |    229924    |   246119
Range status and errors
Selected range
     Filename F:\Music\[Lossless]\Krystal System\Krystal System - Nuclear (2CD Limited Edition) (2011)\CD 1\Krystal System - Nuclear (CD1).wav
     Peak level 100.0 %
     Range quality 100.0 %
     Test CRC 107AA68C
     Copy CRC 107AA68C
     Copy OK
No errors occurred
AccurateRip summary
Track  1  not present in database
Track  2  not present in database
Track  3  not present in database
Track  4  not present in database
Track  5  not present in database
Track  6  not present in database
Track  7  not present in database
Track  8  not present in database
Track  9  not present in database
Track 10  not present in database
Track 11  not present in database
Track 12  not present in database
Track 13  not present in database
Track 14  not present in database
None of the tracks are present in the AccurateRip database
End of status report
Код:
Exact Audio Copy V0.99 prebeta 5 from 4. May 2009
EAC extraction logfile from 28. June 2011, 18:43
Krystal Systel  / Nuclear CD2
Used drive  : HL-DT-STDVDRAM GSA-T50N   Adapter: 1  ID: 0
Read mode               : Secure
Utilize accurate stream : Yes
Defeat audio cache      : Yes
Make use of C2 pointers : No
Read offset correction                      : 667
Overread into Lead-In and Lead-Out          : No
Fill up missing offset samples with silence : Yes
Delete leading and trailing silent blocks   : No
Null samples used in CRC calculations       : Yes
Used interface                              : Native Win32 interface for Win NT & 2000
Used output format              : User Defined Encoder
Selected bitrate                : 768 kBit/s
Quality                         : High
Add ID3 tag                     : No
Command line compressor         : C:\Program Files (x86)\Exact Audio Copy\Flac\flac.exe
Additional command line options : -8 -V %s
TOC of the extracted CD
     Track |   Start  |  Length  | Start sector | End sector
    ---------------------------------------------------------
        1  |  0:00.00 |  2:45.41 |         0    |    12415
        2  |  2:45.41 |  6:19.00 |     12416    |    40840
        3  |  9:04.41 |  4:17.55 |     40841    |    60170
        4  | 13:22.21 |  5:36.50 |     60171    |    85420
        5  | 18:58.71 |  3:56.43 |     85421    |   103163
        6  | 22:55.39 |  5:01.65 |    103164    |   125803
        7  | 27:57.29 |  4:13.19 |    125804    |   144797
        8  | 32:10.48 |  4:16.60 |    144798    |   164057
        9  | 36:27.33 |  3:25.38 |    164058    |   179470
       10  | 39:52.71 |  4:48.11 |    179471    |   201081
       11  | 44:41.07 |  4:18.49 |    201082    |   220480
       12  | 48:59.56 |  3:21.33 |    220481    |   235588
       13  | 52:21.14 |  4:06.03 |    235589    |   254041
Range status and errors
Selected range
     Filename F:\Music\[Lossless]\Krystal System\Krystal System - Nuclear (2CD Limited Edition) (2011)\CD 2\Krystal Systel  - Nuclear CD2.wav
     Peak level 100.0 %
     Range quality 100.0 %
     Test CRC 6B4AFC2A
     Copy CRC 6B4AFC2A
     Copy OK
No errors occurred
AccurateRip summary
Track  1  not present in database
Track  2  not present in database
Track  3  not present in database
Track  4  not present in database
Track  5  not present in database
Track  6  not present in database
Track  7  not present in database
Track  8  not present in database
Track  9  not present in database
Track 10  not present in database
Track 11  not present in database
Track 12  not present in database
Track 13  not present in database
None of the tracks are present in the AccurateRip database
End of status report
Код:
AUDIOCHECKER v2.0 beta (build 457) - by Dester - opdester@freemail.hu
~~~~~~~~~~~~~~~~~~~~~~~~~~~~~~~~~~
-=== DO NOT EDIT THIS FILE! ===-
Path: ...\CD 1
1 -=- Krystal System - Nuclear (CD1).flac -=- CDDA (100%)
44656820
Код:
AUDIOCHECKER v2.0 beta (build 457) - by Dester - opdester@freemail.hu
~~~~~~~~~~~~~~~~~~~~~~~~~~~~~~~~~~
-=== DO NOT EDIT THIS FILE! ===-
Path: ...\CD 2
1 -=- Krystal Systel  - Nuclear CD2.flac -=- CDDA (100%)
242896068
#777Жанр: Electronic
Стиль: EBM / Electro / Industrial
Битрейт аудио: 946 kbps
Лейбл: Alfa Matrix
Каталог#: AM2199DCD
Продолжительность: 52:01 (CD1) + 39:39 (CD2)
Треклист:
CD1
1. Rage
2. Paradise
3. The Next Light
4. Hurricane
5. La Lame Dans Ta Main
6. I Wanna Be
7. Tyler's Waltz
8. Parasites
9. A Quick Pray
10. 26 Days
11. Heroes
12. Fantôme
13. Bye
CD2
1. Rat Jam (A Quick Pray)
2. Project 26 (I Wanna Be)
3. Paradise (AC 30)
4. The Next Light (Red Code)
5. Hurricane (Hurry, Hurry)
6. King Fuzz (Parasites)
7. Walk With The Undead
8. A Nos Vies Passées
9. Around The World (Otakon9 Cosplay Mix)
10. Sanctuary (Unbroken One)
Код:
Exact Audio Copy V1.0 beta 3 from 29. August 2011
EAC extraction logfile from 3. April 2013, 19:40
Krystal System / Rage
Used drive  : HL-DT-STDVDRAM GSA-T50N   Adapter: 1  ID: 0
Read mode               : Secure
Utilize accurate stream : Yes
Defeat audio cache      : Yes
Make use of C2 pointers : No
Read offset correction                      : 667
Overread into Lead-In and Lead-Out          : No
Fill up missing offset samples with silence : Yes
Delete leading and trailing silent blocks   : No
Null samples used in CRC calculations       : Yes
Used interface                              : Native Win32 interface for Win NT & 2000
Used output format              : User Defined Encoder
Selected bitrate                : 1024 kBit/s
Quality                         : High
Add ID3 tag                     : No
Command line compressor         : C:\Users\Lightness\Desktop\Audiochecker_beta_2.0.0.457\Codecs\FLAC\flac.exe
Additional command line options : -V -8 -T "Genre=%genre%" -T "Artist=%artist%" -T "Title=%title%" -T "Album=%albumtitle%" -T "Date=%year%" -T "Tracknumber=%tracknr%" -T "Comment=%comment%" %source%
TOC of the extracted CD
     Track |   Start  |  Length  | Start sector | End sector
    ---------------------------------------------------------
        1  |  0:00.00 |  4:58.33 |         0    |    22382
        2  |  4:58.33 |  3:49.50 |     22383    |    39607
        3  |  8:48.08 |  4:04.64 |     39608    |    57971
        4  | 12:52.72 |  4:46.45 |     57972    |    79466
        5  | 17:39.42 |  3:23.44 |     79467    |    94735
        6  | 21:03.11 |  4:07.69 |     94736    |   113329
        7  | 25:11.05 |  3:14.30 |    113330    |   127909
        8  | 28:25.35 |  4:05.08 |    127910    |   146292
        9  | 32:30.43 |  3:54.57 |    146293    |   163899
       10  | 36:25.25 |  3:18.63 |    163900    |   178812
       11  | 39:44.13 |  2:52.37 |    178813    |   191749
       12  | 42:36.50 |  4:24.25 |    191750    |   211574
       13  | 47:01.00 |  5:00.68 |    211575    |   234142
Range status and errors
Selected range
     Filename F:\Music\[Lossless]\Krystal System\Krystal System - Rage (2CD Limited Edition) (2013)\CD 1\Krystal System - Rage (CD1).wav
     Peak level 98.8 %
     Extraction speed 4.0 X
     Range quality 100.0 %
     Test CRC 731E1A1A
     Copy CRC 731E1A1A
     Copy OK
No errors occurred
AccurateRip summary
Track  1  not present in database
Track  2  not present in database
Track  3  not present in database
Track  4  not present in database
Track  5  not present in database
Track  6  not present in database
Track  7  not present in database
Track  8  not present in database
Track  9  not present in database
Track 10  not present in database
Track 11  not present in database
Track 12  not present in database
Track 13  not present in database
None of the tracks are present in the AccurateRip database
End of status report
---- CUETools DB Plugin V2.1.3
[CTDB TOCID: zAo6pQiAJZBMWu2PIdj.wDEC6hc-] found, Submit result: zAo6pQiAJZBMWu2PIdj.wDEC6hc- has been confirmed
[66c232b6] (1/1) Accurately ripped
==== Log checksum 86A77946B1DFC42797932D9A1BED08632EB0388AAB3FFA86901526E646BC1B7A ====
Код:
Exact Audio Copy V1.0 beta 3 from 29. August 2011
EAC extraction logfile from 3. April 2013, 20:13
Krystal System / Rage CD 2
Used drive  : HL-DT-STDVDRAM GSA-T50N   Adapter: 1  ID: 0
Read mode               : Secure
Utilize accurate stream : Yes
Defeat audio cache      : Yes
Make use of C2 pointers : No
Read offset correction                      : 667
Overread into Lead-In and Lead-Out          : No
Fill up missing offset samples with silence : Yes
Delete leading and trailing silent blocks   : No
Null samples used in CRC calculations       : Yes
Used interface                              : Native Win32 interface for Win NT & 2000
Used output format              : User Defined Encoder
Selected bitrate                : 1024 kBit/s
Quality                         : High
Add ID3 tag                     : No
Command line compressor         : C:\Users\Lightness\Desktop\Audiochecker_beta_2.0.0.457\Codecs\FLAC\flac.exe
Additional command line options : -V -8 -T "Genre=%genre%" -T "Artist=%artist%" -T "Title=%title%" -T "Album=%albumtitle%" -T "Date=%year%" -T "Tracknumber=%tracknr%" -T "Comment=%comment%" %source%
TOC of the extracted CD
     Track |   Start  |  Length  | Start sector | End sector
    ---------------------------------------------------------
        1  |  0:00.00 |  4:09.65 |         0    |    18739
        2  |  4:09.65 |  3:40.22 |     18740    |    35261
        3  |  7:50.12 |  3:15.65 |     35262    |    49951
        4  | 11:06.02 |  3:25.54 |     49952    |    65380
        5  | 14:31.56 |  4:51.65 |     65381    |    87270
        6  | 19:23.46 |  3:37.54 |     87271    |   103599
        7  | 23:01.25 |  3:10.22 |    103600    |   117871
        8  | 26:11.47 |  3:29.11 |    117872    |   133557
        9  | 29:40.58 |  4:16.22 |    133558    |   152779
       10  | 33:57.05 |  5:42.65 |    152780    |   178494
Range status and errors
Selected range
     Filename F:\Music\[Lossless]\Krystal System\Krystal System - Rage (2CD Limited Edition) (2013)\CD 2\Krystal System - Rage (CD2).wav
     Peak level 96.1 %
     Extraction speed 3.7 X
     Range quality 100.0 %
     Test CRC E1B42CA9
     Copy CRC E1B42CA9
     Copy OK
No errors occurred
AccurateRip summary
Track  1  not present in database
Track  2  not present in database
Track  3  not present in database
Track  4  not present in database
Track  5  not present in database
Track  6  not present in database
Track  7  not present in database
Track  8  not present in database
Track  9  not present in database
Track 10  not present in database
None of the tracks are present in the AccurateRip database
End of status report
---- CUETools DB Plugin V2.1.3
[CTDB TOCID: ipxfBkV1dE.R.FGbXTL6JaymtFI-] found, Submit result: ipxfBkV1dE.R.FGbXTL6JaymtFI- has been confirmed
[c7ef987c] (1/1) Accurately ripped
==== Log checksum 469985E3EF0AB199F3E34852B7363F5BD14881D6E73C4B65E896EBE22E548C99 ====
Код:
AUDIOCHECKER v2.0 beta (build 457) - by Dester - opdester@freemail.hu
~~~~~~~~~~~~~~~~~~~~~~~~~~~~~~~~~~
-=== DO NOT EDIT THIS FILE! ===-
Path: ...\CD 1
1 -=- Krystal System - Rage (CD1).flac -=- CDDA (100%)
242668980
Код:
AUDIOCHECKER v2.0 beta (build 457) - by Dester - opdester@freemail.hu
~~~~~~~~~~~~~~~~~~~~~~~~~~~~~~~~~~
-=== DO NOT EDIT THIS FILE! ===-
Path: ...\CD 2
1 -=- Krystal System - Rage (CD2).flac -=- CDDA (100%)
244045236

Мини-альбомы (EPs)
#777Жанр: Electronic / Rock
Стиль: EBM / Electro / Goth Rock / Industrial
Битрейт аудио: 995 kbps
Лейбл: Alfa Matrix
Каталог#: AM3029DJ
Продолжительность: 26:41
Треклист:
1. Mental (Mekatronik Side)
2. New World (Sky Industry Edit)
3. I Love My Chains (Voodoo Night Sessions)
4. Elektrostal (Remix Cube)
5. Master and Servant (Swan Mix)
6. Alakor (Version Androпd)
7. Master and Servant (The Whip It Side)
Код:
Exact Audio Copy V0.99 prebeta 5 from 4. May 2009
EAC extraction logfile from 21. April 2011, 0:16
Krystal System / VooDoo Night Sessions
Used drive  : HL-DT-STDVDRAM GSA-T50N   Adapter: 1  ID: 0
Read mode               : Secure
Utilize accurate stream : Yes
Defeat audio cache      : Yes
Make use of C2 pointers : No
Read offset correction                      : 667
Overread into Lead-In and Lead-Out          : No
Fill up missing offset samples with silence : Yes
Delete leading and trailing silent blocks   : No
Null samples used in CRC calculations       : Yes
Used interface                              : Native Win32 interface for Win NT & 2000
Used output format              : User Defined Encoder
Selected bitrate                : 768 kBit/s
Quality                         : High
Add ID3 tag                     : No
Command line compressor         : C:\Program Files (x86)\Exact Audio Copy\Flac\flac.exe
Additional command line options : -8 -V %s
TOC of the extracted CD
     Track |   Start  |  Length  | Start sector | End sector
    ---------------------------------------------------------
        1  |  0:00.00 |  4:35.65 |         0    |    20689
        2  |  4:35.65 |  3:51.08 |     20690    |    38022
        3  |  8:26.73 |  3:11.33 |     38023    |    52380
        4  | 11:38.31 |  3:47.14 |     52381    |    69419
        5  | 15:25.45 |  3:52.39 |     69420    |    86858
        6  | 19:18.09 |  3:54.32 |     86859    |   104440
        7  | 23:12.41 |  3:28.39 |    104441    |   120079
Range status and errors
Selected range
     Filename F:\Music\[Lossless]\Krystal System\Krystal System - VooDoo Night Sessions (2009)\Krystal System - VooDoo Night Sessions.wav
     Peak level 100.0 %
     Range quality 100.0 %
     Test CRC 714E5B2D
     Copy CRC 714E5B2D
     Copy OK
No errors occurred
AccurateRip summary
Track  1  not present in database
Track  2  not present in database
Track  3  not present in database
Track  4  not present in database
Track  5  not present in database
Track  6  not present in database
Track  7  not present in database
None of the tracks are present in the AccurateRip database
End of status report
Код:
AUDIOCHECKER v2.0 beta (build 457) - by Dester - opdester@freemail.hu
~~~~~~~~~~~~~~~~~~~~~~~~~~~~~~~~~~
-=== DO NOT EDIT THIS FILE! ===-
Path: ...\Krystal System - VooDoo Night Sessions (2009)
1 -=- Krystal System - VooDoo Night Sessions.flac -=- CDDA (100%)
114879844
Доп. информация: рип с собственных дисков.
Правила, инструкции, FAQ!!!
Торрент  Добавлен [26 июн 2020, 20:41] Скачать торрент Магнет ссылка
Скачать торрент
[ Размер 15.39 КБ / Просмотров 6 ]

Статус
Проверен 
 
Размер  2.17 ГБ
Приватный: Нет (DHT включён)
.torrent скачан  0
 


     Отправить личное сообщение
   
Страница 1 из 1
Показать сообщения за:  Поле сортировки  
Начать новую тему Ответить на тему


Сейчас этот форум просматривают: нет зарегистрированных пользователей и гости: 0


Вы не можете начинать темы
Вы не можете отвечать на сообщения
Вы не можете редактировать свои сообщения
Вы не можете удалять свои сообщения
Вы не можете добавлять вложения

Перейти:  
cron