Начать новую тему Ответить на тему
Статистика раздачи
Размер: 480.43 МБ | Добавлен: 26 июн 2020, 17:12 | Скачали: 0
Сидеров: 0  [0 байт/сек]    Личеров: 0  [0 байт/сек]
Пред. тема | След. тема 

Автор
Сообщение

СообщениеДобавлено: 26 июн 2020, 17:12 

Ответить с цитатой 

Krushed Opiates - Driving The Two Dimensional Highway

Жанр: Industrial / Electro
Год выпуска диска: 2002
Производитель диска: US
Аудио кодек: APE
Тип рипа: image+.cue
Битрейт аудио: lossless
Продолжительность: 71:38
Трэклист:
1 American Blonde (4:45)
2 Boom (3:57)
3 Casey (4:33)
4 Master Beat (Mojo Rising Remix) (3:26) Remix - Mercy Cage, The
5 Boom's Half-Brother (4:56)
6 Beggin (Full Remix) (5:23)
7 Flintsones Chewable Morphine (4:34)
8 Destiny (I Did Nothing Mix) (5:17)
9 Shutdown (Cessation Mix) (5:10)
10 Like It's Nothing (6:45)
11 Monster (4:33)
12 Ripped (5:32)
13 Go! (5:36)
14 Master Beat (Original Version) (4:36)
15 Multi-Pass (2:29)
Доп. информация: DSBP; DSBP #1045
Код:
Exact Audio Copy V0.99 prebeta 4 from 23. January 2008
EAC extraction logfile from 3. December 2008, 14:56
Krushed Opiates / Driving The Two Dimensional Highway
Used drive  : PIONEER DVD-RW  DVR-112D   Adapter: 1  ID: 1
Read mode               : Secure
Utilize accurate stream : Yes
Defeat audio cache      : Yes
Make use of C2 pointers : No
Read offset correction                      : 48
Overread into Lead-In and Lead-Out          : No
Fill up missing offset samples with silence : Yes
Delete leading and trailing silent blocks   : No
Null samples used in CRC calculations       : Yes
Used interface                              : Installed external ASPI interface
Used output format : Internal WAV Routines
Sample format      : 44.100 Hz; 16 Bit; Stereo
TOC of the extracted CD
     Track |   Start  |  Length  | Start sector | End sector
    ---------------------------------------------------------
        1  |  0:00.00 |  4:45.33 |         0  |       21407
        2  |  4:45.33 |  3:57.09 |     21408  |       39191
        3  |  8:42.42 |  4:33.26 |     39192  |       59692
        4  | 13:15.68 |  3:26.41 |     59693  |       75183
        5  | 16:42.34 |  4:56.00 |     75184  |       97383
        6  | 21:38.34 |  5:23.40 |     97384  |      121648
        7  | 27:01.74 |  4:34.25 |    121649  |      142223
        8  | 31:36.24 |  5:17.13 |    142224  |      166011
        9  | 36:53.37 |  5:10.74 |    166012  |      189335
       10  | 42:04.36 |  6:45.62 |    189336  |      219772
       11  | 48:50.23 |  4:33.62 |    219773  |      240309
       12  | 53:24.10 |  5:32.27 |    240310  |      265236
       13  | 58:56.37 |  5:36.14 |    265237  |      290450
       14  | 64:32.51 |  4:36.38 |    290451  |      311188
       15  | 69:09.14 |  2:29.55 |    311189  |      322418
Range status and errors
Selected range
   Filename J:\Krushed Opiates - Driving The Two Dimensional Highway\CDImage.wav
   Peak level 96.6 %
   Range quality 100.0 %
   Test CRC 8F3CA9B7
   Copy CRC 8F3CA9B7
   Copy OK
No errors occurred
AccurateRip summary
Track  1  accurately ripped (confidence 1)  [9B34E6D3]
Track  2  accurately ripped (confidence 1)  [8C04A873]
Track  3  accurately ripped (confidence 1)  [07704B51]
Track  4  accurately ripped (confidence 1)  [D46EE53E]
Track  5  accurately ripped (confidence 1)  [67E2EE36]
Track  6  accurately ripped (confidence 1)  [C8DEC55F]
Track  7  accurately ripped (confidence 1)  [E1D32458]
Track  8  accurately ripped (confidence 1)  [5FFD70AE]
Track  9  accurately ripped (confidence 1)  [3DE2DF1E]
Track 10  accurately ripped (confidence 1)  [2BBE21CE]
Track 11  accurately ripped (confidence 1)  [EB31D969]
Track 12  accurately ripped (confidence 1)  [F6F94B58]
Track 13  accurately ripped (confidence 1)  [943697F1]
Track 14  accurately ripped (confidence 1)  [C9FA0D3B]
Track 15  accurately ripped (confidence 1)  [AF45678B]
All tracks accurately ripped
End of status report
Код:
AUDIOCHECKER v2.0 beta (build 457) - by Dester - opdester@freemail.hu
~~~~~~~~~~~~~~~~~~~~~~~~~~~~~~~~~~
-=== DO NOT EDIT THIS FILE! ===-
Path: ...\Krushed Opiates - Driving The Two Dimensional Highway
01 -=- CDImage.wav -=- CDDA (100%)
190127764
Правила, инструкции, FAQ!!!
Торрент  Добавлен [26 июн 2020, 17:12] Скачать торрент Магнет ссылка
Скачать торрент
[ Размер 19.64 КБ / Просмотров 3 ]

Статус
Проверен 
 
Размер  480.43 МБ
Приватный: Нет (DHT включён)
.torrent скачан  0
 


     Отправить личное сообщение
   
Страница 1 из 1
Показать сообщения за:  Поле сортировки  
Начать новую тему Ответить на тему


Сейчас этот форум просматривают: нет зарегистрированных пользователей и гости: 0


Вы не можете начинать темы
Вы не можете отвечать на сообщения
Вы не можете редактировать свои сообщения
Вы не можете удалять свои сообщения
Вы не можете добавлять вложения

Перейти:  
cron