Начать новую тему Ответить на тему
Статистика раздачи
Размер: 279.79 МБ | Добавлен: 26 июн 2020, 20:46 | Скачали: 0
Сидеров: 0  [0 байт/сек]    Личеров: 0  [0 байт/сек]
Пред. тема | След. тема 

Автор
Сообщение

СообщениеДобавлено: 26 июн 2020, 20:46 

Ответить с цитатой 

Kevorkian Death Cycle - A+O(M)
Жанр: Industrial, Electro
Страна-производитель диска: USA
Год издания диска: 1999
Издатель (лейбл): Metropolis Records
Номер по каталогу: MET 145
Аудио кодек: FLAC (*.flac)
Тип рипа: tracks+.cue
Битрейт аудио: lossless
Источник (релизер): waffles.fm
Наличие сканов в содержимом раздачи: нет
Треклист:
1. How To Nuke Heaven (4:28)
2. Death to the Flesh (3:57)
3. Pulse (5:07)
4. Sci-Fi (3:10)
5. Caged (5:15)
6. Escape Part I (2:20)
7. Escape Part II (2:36)
8. Relax (4:53)
9. The Doorway (3:37)
10. A+O(M) (5:07)
Лучшая ваша благодарность за раздачу - отзывы об альбоме!
This torrent is approved by the Waffle Irons with high confidence of being a perfect rip.
Код:
Exact Audio Copy V0.99 prebeta 5 from 4. May 2009
EAC extraction logfile from 4. October 2009, 17:14
Kevorkian Death Cycle / A+0(m)
Used drive  : TSSTcorpCDDVDW SH-S223F   Adapter: 2  ID: 0
Read mode               : Secure
Utilize accurate stream : Yes
Defeat audio cache      : Yes
Make use of C2 pointers : No
Read offset correction                      : 6
Overread into Lead-In and Lead-Out          : No
Fill up missing offset samples with silence : Yes
Delete leading and trailing silent blocks   : No
Null samples used in CRC calculations       : Yes
Used interface                              : Native Win32 interface for Win NT & 2000
Gap handling                                : Appended to previous track
Used output format              : User Defined Encoder
Selected bitrate                : 320 kBit/s
Quality                         : High
Add ID3 tag                     : No
Command line compressor         : C:\Program Files\FLAC\flac.exe
Additional command line options : -V -8 -T "artist=%a" -T "title=%t" -T "album=%g" -T "date=%y" -T "tracknumber=%n" -T "genre=%m" %s
TOC of the extracted CD
     Track |   Start  |  Length  | Start sector | End sector
    ---------------------------------------------------------
        1  |  0:00.00 |  4:28.25 |         0    |    20124
        2  |  4:28.25 |  3:57.30 |     20125    |    37929
        3  |  8:25.55 |  5:06.67 |     37930    |    60946
        4  | 13:32.47 |  3:10.23 |     60947    |    75219
        5  | 16:42.70 |  5:14.57 |     75220    |    98826
        6  | 21:57.52 |  2:19.25 |     98827    |   109276
        7  | 24:17.02 |  2:36.04 |    109277    |   120980
        8  | 26:53.06 |  4:53.54 |    120981    |   143009
        9  | 31:46.60 |  3:36.19 |    143010    |   159228
       10  | 35:23.04 |  5:07.48 |    159229    |   182301
Track  1
     Filename C:\EACRips\Kevorkian Death Cycle - 1999 - A+0(m) [FLAC]\01 - How to Nuke Heaven.wav
     Pre-gap length  0:00:02.00
     Peak level 96.6 %
     Track quality 100.0 %
     Test CRC B002208C
     Copy CRC B002208C
     Accurately ripped (confidence 7)  [FC2DC31B]
     Copy OK
Track  2
     Filename C:\EACRips\Kevorkian Death Cycle - 1999 - A+0(m) [FLAC]\02 - Death to the Flesh.wav
     Peak level 100.0 %
     Track quality 100.0 %
     Test CRC EB8AF894
     Copy CRC EB8AF894
     Accurately ripped (confidence 7)  [462F0623]
     Copy OK
Track  3
     Filename C:\EACRips\Kevorkian Death Cycle - 1999 - A+0(m) [FLAC]\03 - Pulse.wav
     Pre-gap length  0:00:00.02
     Peak level 96.6 %
     Track quality 100.0 %
     Test CRC 4A5A4172
     Copy CRC 4A5A4172
     Accurately ripped (confidence 7)  [49955016]
     Copy OK
Track  4
     Filename C:\EACRips\Kevorkian Death Cycle - 1999 - A+0(m) [FLAC]\04 - Sci-Fi.wav
     Pre-gap length  0:00:00.03
     Peak level 100.0 %
     Track quality 100.0 %
     Test CRC 1C2DE660
     Copy CRC 1C2DE660
     Accurately ripped (confidence 7)  [49423E3B]
     Copy OK
Track  5
     Filename C:\EACRips\Kevorkian Death Cycle - 1999 - A+0(m) [FLAC]\05 - Caged.wav
     Peak level 100.0 %
     Track quality 99.9 %
     Test CRC AA92E01D
     Copy CRC AA92E01D
     Accurately ripped (confidence 7)  [729E4A8B]
     Copy OK
Track  6
     Filename C:\EACRips\Kevorkian Death Cycle - 1999 - A+0(m) [FLAC]\06 - Escape Part I.wav
     Peak level 96.5 %
     Track quality 100.0 %
     Test CRC A0A08896
     Copy CRC A0A08896
     Accurately ripped (confidence 7)  [DE9EC41D]
     Copy OK
Track  7
     Filename C:\EACRips\Kevorkian Death Cycle - 1999 - A+0(m) [FLAC]\07 - Escape Part II.wav
     Peak level 96.5 %
     Track quality 99.9 %
     Test CRC 97760928
     Copy CRC 97760928
     Accurately ripped (confidence 7)  [C9E747C1]
     Copy OK
Track  8
     Filename C:\EACRips\Kevorkian Death Cycle - 1999 - A+0(m) [FLAC]\08 - Relax.wav
     Pre-gap length  0:00:00.01
     Peak level 100.0 %
     Track quality 100.0 %
     Test CRC 472C051F
     Copy CRC 472C051F
     Accurately ripped (confidence 7)  [F6AE25E1]
     Copy OK
Track  9
     Filename C:\EACRips\Kevorkian Death Cycle - 1999 - A+0(m) [FLAC]\09 - The Doorway.wav
     Pre-gap length  0:00:00.03
     Peak level 83.9 %
     Track quality 100.0 %
     Test CRC 72C3FAC1
     Copy CRC 72C3FAC1
     Accurately ripped (confidence 7)  [97CF37FF]
     Copy OK
Track 10
     Filename C:\EACRips\Kevorkian Death Cycle - 1999 - A+0(m) [FLAC]\10 - A+0(m).wav
     Peak level 100.0 %
     Track quality 100.0 %
     Test CRC E1F9AEA5
     Copy CRC E1F9AEA5
     Accurately ripped (confidence 7)  [7EAF8B38]
     Copy OK
All tracks accurately ripped
No errors occurred
End of status report
Код:
REM GENRE EBM
REM DATE 1999
REM DISCID 73097E0A
REM COMMENT "ExactAudioCopy v0.99pb5"
FILE "01 - How to Nuke Heaven.wav" WAVE
  TRACK 01 AUDIO
    INDEX 01 00:00:00
FILE "02 - Death to the Flesh.wav" WAVE
  TRACK 02 AUDIO
    INDEX 01 00:00:00
  TRACK 03 AUDIO
    INDEX 00 03:57:28
FILE "03 - Pulse.wav" WAVE
    INDEX 01 00:00:00
  TRACK 04 AUDIO
    INDEX 00 05:06:64
FILE "04 - Sci-Fi.wav" WAVE
    INDEX 01 00:00:00
FILE "05 - Caged.wav" WAVE
  TRACK 05 AUDIO
    INDEX 01 00:00:00
FILE "06 - Escape Part I.wav" WAVE
  TRACK 06 AUDIO
    INDEX 01 00:00:00
FILE "07 - Escape Part II.wav" WAVE
  TRACK 07 AUDIO
    INDEX 01 00:00:00
  TRACK 08 AUDIO
    INDEX 00 02:36:03
FILE "08 - Relax.wav" WAVE
    INDEX 01 00:00:00
  TRACK 09 AUDIO
    INDEX 00 04:53:51
FILE "09 - The Doorway.wav" WAVE
    INDEX 01 00:00:00
FILE "10 - A+0(m).wav" WAVE
  TRACK 10 AUDIO
    INDEX 01 00:00:00
Правила, инструкции, FAQ!!!
Торрент  Добавлен [26 июн 2020, 20:46] Скачать торрент Магнет ссылка
Скачать торрент
[ Размер 12.01 КБ / Просмотров 10 ]

Статус
Проверен 
 
Размер  279.79 МБ
Приватный: Нет (DHT включён)
.torrent скачан  0
 


     Отправить личное сообщение
   
Страница 1 из 1
Показать сообщения за:  Поле сортировки  
Начать новую тему Ответить на тему


Сейчас этот форум просматривают: нет зарегистрированных пользователей и гости: 0


Вы не можете начинать темы
Вы не можете отвечать на сообщения
Вы не можете редактировать свои сообщения
Вы не можете удалять свои сообщения
Вы не можете добавлять вложения

Перейти:  
cron