Начать новую тему Ответить на тему
Статистика раздачи
Размер: 1.42 ГБ | Добавлен: 26 июн 2020, 20:08 | Скачали: 0
Сидеров: 0  [0 байт/сек]    Личеров: 0  [0 байт/сек]
Пред. тема | След. тема 

Автор
Сообщение

СообщениеДобавлено: 26 июн 2020, 20:08 

Ответить с цитатой 

N-616 / Дискография
Жанр: Industrial, Electro-Industrial
Страна-производитель диска: Россия
Год издания диска: 2002-2004
Страна: Россия
Аудио кодек: FLAC (*.flac)
Тип рипа: image+.cue
Битрейт аудио: lossless
Продолжительность: 5:11:55
Источник (релизер): Авторская раздача
Наличие сканов в содержимом раздачи: да
Код:
[imgright]http://i64.fastpic.ru/big/2014/1102/69/9d93761743f1bc00067c1a1d7f8be669.jpeg[/imgright]1. Entering
2. Emptiness of Soul
3. Эра
4. Quiet
5. Cold
6. No Happiness In Machine
7. Machinery
8. A Sip
9. Wielky Konstructor
10. Entering (remix by Gorduw)
Exact Audio Copy V1.0 beta 1 from 15. November 2010
EAC extraction logfile from 16. January 2011, 22:20
N-616 / Cold & Snow
Used drive : PLEXTOR DVDR PX-810SA Adapter: 4 ID: 0
Read mode : Secure
Utilize accurate stream : Yes
Defeat audio cache : Yes
Make use of C2 pointers : No
Read offset correction : 48
Overread into Lead-In and Lead-Out : No
Fill up missing offset samples with silence : Yes
Delete leading and trailing silent blocks : No
Null samples used in CRC calculations : Yes
Used interface : Native Win32 interface for Win NT & 2000
Used output format : User Defined Encoder
Selected bitrate : 128 kBit/s
Quality : High
Add ID3 tag : No
Command line compressor : D:\Program Files (x86)\Exact Audio Copy\Flac\flac.exe
Additional command line options : -8 -V %s
TOC of the extracted CD
Track | Start | Length | Start sector | End sector
---------------------------------------------------------
1 | 0:00.00 | 5:08.54 | 0 | 23153
2 | 5:08.54 | 8:33.32 | 23154 | 61660
3 | 13:42.11 | 5:40.64 | 61661 | 87224
4 | 19:23.00 | 6:47.06 | 87225 | 117755
5 | 26:10.06 | 8:36.72 | 117756 | 156527
6 | 34:47.03 | 3:38.10 | 156528 | 172887
7 | 38:25.13 | 15:45.48 | 172888 | 243810
8 | 54:10.61 | 7:51.27 | 243811 | 279162
9 | 62:02.13 | 7:08.68 | 279163 | 311330
10 | 69:11.06 | 5:27.35 | 311331 | 335890
Range status and errors
Selected range
Filename D:\Users\S\Desktop\N-616\2002 - Cold & Snow\N-616 - Cold & Snow.wav
Peak level 100.0 %
Extraction speed 0.5 X
Range quality 99.9 %
Test CRC 2D217940
Copy CRC 2D217940
Copy OK
No errors occurred
AccurateRip summary
Track 1 not present in database
Track 2 not present in database
Track 3 not present in database
Track 4 not present in database
Track 5 not present in database
Track 6 not present in database
Track 7 not present in database
Track 8 not present in database
Track 9 not present in database
Track 10 not present in database
None of the tracks are present in the AccurateRip database
End of status report
Рецензия от Ultima Ratio.
Первый альбом ставропольского проекта содержит записи различных временных периодов с 2001 по 2002 года плюс подарок от dr.F в виде брутального и насыщенного покореженной перкуссией ремикса открывающей альбом композиции.
Содержится диск в простом пакетике из плотной бумаги с фото глаз (по одному на каждого) женщины и мужчины (Ж стоит впереди, а М - позади), на заднике, кроме технической информации, содержится более крупно взятый зрачок (вот здесь в вопросах определения пола я пасую...). Органов зрения в каких-то еще проявлениях больше не вижу - переходим к моим ушам и тому, что в них подается из наушников.
Как и в случае со вторым альбомом, определить стиль дебютника не получается и единственным словом, допустимым к использованию здесь, может быть только термин Electronic. Трэки очень разнообразны как промеж, так и внутри себя: от немного агрессивных перкусионных фрагментов они переходят к эмбиентным обработкам голоса, от space-like интерлюдий - к нойзовым посвистываниям и сталепрокатным бряцаниям. Альбом похож на разноцветное лоскутное одеяло - максимально пестро и разнообразно, но вместе с этим невозможно восстановить в памяти то, что буквально десять минут назад играло, да и при перемешивании составляющих кусочков общий результат если бы и изменился, то все равно не внес никакого радикально нового привкуса в целостную картину музыкального полотна коллажной природы.
Умение дуэта работать с синтезом и эффектами располагается на приличном уровне, но все же стоило как-то сравнять стилистическую невнятность и имманентную тяжесть восприятия альбома в целом, хотя, что можно взять с ранних работ.
Рецензия от Valhalla.
Недавний релиз Фольворка - электронный проект N-616. Он состоит из двух музыкантов, которых зовут VS и Z. Последний, кроме компьютинга и программирования, ответственнен за вокал (которого здесь негусто).
С обложки альбома на нас смотрит ничего не выражающий глаз; другой глаз с обложки смотрит как минимум не на нас, а вообще - вниз и влево (для глаза - вправо). Согласно информации, имеющейся на диске, начало создания альбома относится к периоду августа 2000 года, когда шла речь о демо-альбоме "Snow". Основаная же работа пришлась на 2001 год - тогда было создано большинство трэков. И ещё три трэка были сделаны в 2002 году.
Точную стилистику альбома "Cold & Snow" мы определить не возьмёмся - здесь намешано достаточно много всяких компонентов, важнейшими из которых являются ритмы и шумы. Назвать же эту музыку rhythm'n'noise было бы совсем неправильно - 121 предложил рассматривать её как некий гибрид, назовём его noise darkwave. При этом мы сразу отсекаем от данной записи всех любителей готических и окологотических изысков - это не для них, это против них. И это несмотря на то, что некоторые фрагменты этого альбома подверглись слабым готическим касаниям. В целом можно сказать, что вся синтезаторная работа, столь любимая апологетами стиля darkwave, в случае с N-616 в 90% случаев заменена шумами средней экстремальности. "Cold & Snow" выглядит и звучит как издевательство над darkwave'ом, как отражение этого стиля в кривом зеркале индустриальной культуры, с кривыми атональными мелодиями и нервной перкуссией. Вот только 16-минутный трэк "Machinery", созданный в 2000 году, однозначно относится к стилю noise, и весьма-весьма напоминает обработанные записи старого проекта 16P17R15O19T15O19T23Y16P. Ремикс первой пьесы, обозначенный под вывеской GORDUW, предлагает к заслушиванию вариант с плотной запинающейся перкуссией в своём фирменном стиле, множественные шумовые интрузии и монотонность.
Код:
[imgright]http://i63.fastpic.ru/big/2014/1102/67/40c23d6cb9218fba89029a317b6a5467.jpeg[/imgright]1. Электрический странник
2. Информационное поле 'R'
3. К дальнему солнцу
4. Terra Incognita
5. Toolbox
6. E meets T
7. Тело будущего
8. Спать...
9. Помехи в эфире
Exact Audio Copy V1.0 beta 1 from 15. November 2010
EAC extraction logfile from 16. January 2011, 22:00
N-616 / Electro Paradigm of Futurism
Used drive : PLEXTOR DVDR PX-810SA Adapter: 4 ID: 0
Read mode : Secure
Utilize accurate stream : Yes
Defeat audio cache : Yes
Make use of C2 pointers : No
Read offset correction : 48
Overread into Lead-In and Lead-Out : No
Fill up missing offset samples with silence : Yes
Delete leading and trailing silent blocks : No
Null samples used in CRC calculations : Yes
Used interface : Native Win32 interface for Win NT & 2000
Used output format : User Defined Encoder
Selected bitrate : 128 kBit/s
Quality : High
Add ID3 tag : No
Command line compressor : D:\Program Files (x86)\Exact Audio Copy\Flac\flac.exe
Additional command line options : -8 -V %s
TOC of the extracted CD
Track | Start | Length | Start sector | End sector
---------------------------------------------------------
1 | 0:00.00 | 5:11.04 | 0 | 23328
2 | 5:11.04 | 7:20.12 | 23329 | 56340
3 | 12:31.16 | 4:38.00 | 56341 | 77190
4 | 17:09.16 | 4:43.02 | 77191 | 98417
5 | 21:52.18 | 3:00.38 | 98418 | 111955
6 | 24:52.56 | 6:04.24 | 111956 | 139279
7 | 30:57.05 | 8:09.45 | 139280 | 175999
8 | 39:06.50 | 7:50.15 | 176000 | 211264
9 | 46:56.65 | 5:49.66 | 211265 | 237505
Range status and errors
Selected range
Filename D:\Users\S\Desktop\N-616\2003 - Electro Paradigm of Futurism\N-616 - Electro Paradigm of Futurism.wav
Peak level 100.0 %
Extraction speed 0.8 X
Range quality 100.0 %
Test CRC FE4F7A04
Copy CRC FE4F7A04
Copy OK
No errors occurred
AccurateRip summary
Track 1 not present in database
Track 2 not present in database
Track 3 not present in database
Track 4 not present in database
Track 5 not present in database
Track 6 not present in database
Track 7 not present in database
Track 8 not present in database
Track 9 not present in database
None of the tracks are present in the AccurateRip database
End of status report
Рецензия от Ultima Ratio.
Еще один проект выпущенный на Фолворк столь же нехарактерный для данного лэйбла, как и EONIC. Если в последнем проекте главенствовала музыкальная составляющая и упор больше делался на музыкальность (ну, в крайнем случае ambient'ность), то здесь мы имеем дело более с экспериментальным подходом к музыке. "Открыть для слушателей какую-то другую страницу в этой книге, которую мы зовем "музыкальный стиль" , сказать слово отличное от всего того, что слышит общественность..." - эти слова из интервью вынесены в буклет и принадлежат Z'у, что наравне с VS'ом занимается в проекте всяческим синтезированием, программингом и махинациями с аудиоэффектами. Утверждение смелое, но в целом не совсем уж пропащее и беспочвенное - что-то свое у них вышло и вписать их творение в единую стилистическую канву будет непозволительной ошибкой.
В начале альбома призрачно-болезненые, ненавязчивые мелодии переплетаются с электроперкуссией, образуя то, что даже может местами претендовать на ярлык Easy-Listening/Lounge. Здесь нет ничего радикального и мрачно-индустриально-нойзового по звуку, все мягко и релаксивно. Дальнейшее развитие альбома смещается в более экспериментальную струю и делает звучание несколько авангардным и трудновоспринимаемым по причине заморочек на тембровом фронте и легкой тупости в стилистическом плане: например, на пути лазерного луча проигрывателя встречаются ненавистные мне партии синтетической дисторшированной гитары в трэках 4, 7 и 9, звук которой я не приемлю ни в каком, даже в самом ниибацца качественнейшем виде, также имеются dance-like куски, ну никак не желающие зарабатывать положительное мнение о себе... Хотя, присутствуют и вполне милые фишки в духе обработки голоса под виниловые scratch'и на седьмом трэке или забавной мелодии, ведомой какой-то синтезированной эмуляцией бас-гитары, в восьмом. Девятый трэк начинается со вступления, которое мне упорно напоминает искаженную мелодию из древней игры 'Prince of Persia', а заканчивается сэмплом из мультфильма "Падал прошлогодний снег"... Самым главным недостатком альбома является полное отсутствие эмоциональной окраски: здесь нет ни агрессии, ни вселенски красивых и душещипательных мелодий, ни пафосных марширований... есть только музыка, просто набор нот, иногда консонансных, иногда не очень... впрочем, слушать их большей частью приятно.
Рецензия от Dark City.
Проект участников красноярского (VS> Мы из Ставрополя) коллектива Eonic выдержан в стиле Intellectual Future Electro. В отличии от предыдущего - холодного и мрачного - альбома "Cold & Snow" данный релиз прямо-таки лучится положительной энергией. Довольно странный релиз для лейбла доктора Feitnathoroth'а - человека задумавшего погасить солнце. Впрочем, проект не его, хотя он и работал с участниками N - 616 под вывеской Corpus Collosum. Похоже, оптимистичный взгляд в будущее - новое веяние в творчестве коллектива. Равно как и использование вокала - ранее сей инструмент использовал лишь глава лейбла в своих проектах Gorduw и Tchort. К сожалению, особой оригинальности в композициях N-616 нет. "Музыка будущего" по большей части представляет собой отображение наработок Вангелиса и Шульце в красноярской системе координат. Слегка иначе сыграно, но все же узнаваемо. По крайней мере, сэмплы "эфирных колокольчиков" и "Протяжные Звуки, Под Которые В Фильмах Показывают Необъятные Панорамы Величественных Городов Будущего" "прописаны" в высоколобой электронике лет 20 назад. Если не больше. Так что изменить будущее красноярцам N - 616 не удалось - остались в русле данного пространственно временного континуума. Тем не менее, альбом вышел достойным, эмоционально нагруженным. Это хорошо.
Код:
[imgright]http://i63.fastpic.ru/big/2014/1102/ff/b452c08ddea25bfb30ee03b83fca4fff.jpeg[/imgright]1. [Bunker#616]
2. [Production]
3. [Monsters]
4. [Front Line]
5. [Consumption]
6. [Last Conflict]
7. [Civilization of the Dawn]
8. [Koniec]
9. [Citizens Kill Citizens]
10. [Another…]
11. [A Day Without Light]
12. [Winter World]
13. [Alone in the Dark]
Exact Audio Copy V1.0 beta 1 from 15. November 2010
EAC extraction logfile from 16. January 2011, 22:42
N-616 / [Ex-planet Earth]
Used drive : PLEXTOR DVDR PX-810SA Adapter: 4 ID: 0
Read mode : Secure
Utilize accurate stream : Yes
Defeat audio cache : Yes
Make use of C2 pointers : No
Read offset correction : 48
Overread into Lead-In and Lead-Out : No
Fill up missing offset samples with silence : Yes
Delete leading and trailing silent blocks : No
Null samples used in CRC calculations : Yes
Used interface : Native Win32 interface for Win NT & 2000
Used output format : User Defined Encoder
Selected bitrate : 128 kBit/s
Quality : High
Add ID3 tag : No
Command line compressor : D:\Program Files (x86)\Exact Audio Copy\Flac\flac.exe
Additional command line options : -8 -V %s
TOC of the extracted CD
Track | Start | Length | Start sector | End sector
---------------------------------------------------------
1 | 0:00.00 | 4:47.27 | 0 | 21551
2 | 4:47.27 | 4:02.19 | 21552 | 39720
3 | 8:49.46 | 3:42.46 | 39721 | 56416
4 | 12:32.17 | 2:54.00 | 56417 | 69466
5 | 15:26.17 | 4:09.38 | 69467 | 88179
6 | 19:35.55 | 3:20.24 | 88180 | 103203
7 | 22:56.04 | 4:04.69 | 103204 | 121572
8 | 27:00.73 | 8:52.11 | 121573 | 161483
9 | 35:53.09 | 4:48.71 | 161484 | 183154
10 | 40:42.05 | 5:04.27 | 183155 | 205981
11 | 45:46.32 | 3:46.12 | 205982 | 222943
12 | 49:32.44 | 10:20.67 | 222944 | 269510
13 | 59:53.36 | 4:26.00 | 269511 | 289460
Range status and errors
Selected range
Filename D:\Users\S\Desktop\N-616\2003, 2004 - [Ex-Planet Earth], [Winter World III] (2005 issue)\N-616 - [Ex-planet Earth].wav
Peak level 100.0 %
Extraction speed 0.5 X
Range quality 100.0 %
Test CRC 8ADC5D55
Copy CRC 8ADC5D55
Copy OK
No errors occurred
AccurateRip summary
Track 1 not present in database
Track 2 not present in database
Track 3 not present in database
Track 4 not present in database
Track 5 not present in database
Track 6 not present in database
Track 7 not present in database
Track 8 not present in database
Track 9 not present in database
Track 10 not present in database
Track 11 not present in database
Track 12 not present in database
Track 13 not present in database
None of the tracks are present in the AccurateRip database
End of status report
[Ex-Planet Earth]:
Рецензия от Dark Industry.
Ставропольский проект N-616 впервые стал известен два года назад, когда красноярский анти-человеческий лейбл Folvork'prod выпустил его альбом "Cold & Snow". Положа руку на сердце, тот альбом нас тогда впечатлил весьма умеренно (не очень свежая смесь KRAFTWERK и SKINNY PUPPY), и ничего сильно потрясающего мы от присланного нам группой N-616 диска, вообще говоря, не ждали. С удовольствием констатируем, что наши подозрения совершенно не оправдались. Более того, оба присланных нам альбома - N-616 и EONIC (ещё одного проекта тех же музыкантов) - с тех пор прослушиваются регулярно и с нескрываемым удовольствием. Первые трека содержат высокосортный EBM, стремительный и мелодичный, снабжённый изобилием интересных сэмплов, которому можно было бы поставить в упрёк только то, что он слишком сильно похож на VELVET ACID CHRIST - но мы этого делать не собираемся. Потому что, как ни парадоксально, но достойных последователей у этой легендарной группы, исполнявшей, казалось бы, довольно незатейливую музыку, по нашим сведениям нет. Как бы в ответ на мысленную незлобивую усмешку по поводу упомянутого сходства, с четвёртого трека ("Front Line") танцевальная музыка совершенно ненавязчиво переходит в сверхзвуковое рубилово, которое нельзя назвать иначе, как электронным грайнд-кором. Более спокойная "Consumption", похоже, является своеобразным приветом доктору Фейтнатароту (Folvork'prod.): среднетемповые биты с нарочито простоватой мелодической линией (что полностью адекватно названию), напоминающие TCHORT, приправленны клацаньем затвора и звуками взрывов. Трек 6 - "Последний конфликт", учинённый вернувшимся, чтобы хлопнуть дверью, электронным грайндом ("замоченные" на 100% гитары + перкуссия, по скорости похожая на звук трещотки). Это тот редкий вид конфликта, каких хотелось бы побольше. Назовём для себя этот стиль DGC (digital grind-core, по аналогии с EBM). Спокойный электронный опус "Civilization of the Dawn" напоминает синтезаторную музыку 80-х. Завершает трек-лист композиция "Koniec", тоже довольно спокойная, хотя и противоречщая своему названию - оказывается, это ещё вовсе не "коньетц": за ней следует скрытый трек в стиле trip-hop.
Вывод. Не надо больше плевать в лицо тем, кто спорит с вами, доказывая, что хорошей музыкой можно назвать только металл и харш-нойз, а остальное - попса. Теперь вы можете заткнуть им рот альбомом "Ex-Planet Earth" (лучше, конечно, не буквально, а при помощи прослушивания диска, иначе носитель может пострадать), ясно показывающего, что использование клавишных, битов, мелодических паттернов и пр. ещё не делает "попсой" хорошую музыку. А если ваши знакомые, и того хуже, наоборот считают музыкой всё, кроме металла и харш-нойза - то необходимость плевать им в лицо также отпадает! Потому что, после нескольких прослушиваний N-616, от MTV их начнут крючить судороги. Нам ничего не известно о планах издания этого альбома (хотя мы не сомневаемся в том, что он должен быть издан в самое ближайшее время), поэтому желающим приобрести его пока можем только порекомендовать обратиться к автору.
Рецензия от Ether.
"[ex-Planet Earth]" - демо 2003 года. Стиль так и не претерпел изменений. В данном случае можно говорить о развитии идей в рамках стиля. "Bunker#616" - трек, открывающий альбом - очень качественно сделанный EBM. "Production" и "Monsters" уже приправлены sci-fi ритмами. Очень напоминает Velvet Acid Christ... Если думаете, что EBM и танцевальность - удел музыкального телевидения, вы явно ошибаетесь. Подход к работе очень качественный. Ритмы развиваются, растут. Агрессия. Четвертый и шестой треки - "Front Line" и "Last Conflict" очень похожи друг на друга, благодаря применению изрядно дисторшированной гитары некоего Sadist'а - музыканта, приглашенного членами дуэта для записи "[ex-Planet Earth]". Высокоскоростная перкуссия не задает ритм, а просто трещит, дополняя ощущение хаоса, создаваемое гитарой... Все это скоростное безобразие мгновенно обрывается. Далее следует "Civilization of the Dawn" - спокойная и красивая вещь, звук которой походит на синтезаторный. Последний трек, озаглавленный "Koniec" тоже мягок и спокоен. Ритм ударных в сочетании со sci-тембрами почему-то родил в моем (извращенном) сознании стойкие ассоциации с саунд-треками к старым эротическим фильмам вроде "Эммануэль". После "Конца" следует скрытый Trip-Hop'овый трек. Скрыт он, по моему мнению, зря.
Общее впечатление исключительно положительное. Качественный и аккуратный подход к работе с семплами и эффектами плюс интересные ходы - этого достаточно, чтобы изменить свое мнение о EBM. После прослушивания "[ex-Planet Earth]" начинаешь понимать, что все то, что раньше подавалось как EBM - наигрывания одним пальцем на синтезаторе или долбящее "тыц-тыц-тыц" - не имеет к настоящему EBM никакого отношения. Вместе с танцевальностью авторам удалось сплести агрессию. Захватывающая и интересная работа.
Насчет оформления сказать нечего: альбом не издан, и диск, упакованный в пупырчатый целофан, был получен мной по почте. Все предпосылки к изданию материала налицо. Будем надеяться, он скоро станет доступным общественности. Если хотите получить запись, попробуйте обратиться к авторам.
Рецензия от Ultima Ratio.
С уходом в глубокую изоляцию сибирского врачевателя Feitnathoroth'а оба ставропольских проекта EONIC и N-616 остались без средств к изданию и сейчас рассылают свои промо по всем сторонам света, вероятно, дабы найти замену красноярскому лэйблу на случай полного konca последнего.
Со времен создания прошлых двух альбомов музыка дуэта изменилась не радикально, но изрядное смещение в более другие области звукописи здесь слышится. Начиная с первого трэка, основным штрихом большинства композиций заявлена агрессия и четкое машинное настроение: звук вырывающихся вверх лифтов, зависающих систем и эхо дорожных работ пересекается с sci-fi мелодиями и тембрами, в своем столкновении образуя незатейливый техногенный апокалипсис. Пара трэков ("Линия фронта" и "Последний конфликт") напоминают THE BERZERKER light: хрипящая перкуссия на высоких оборотах делает свое дело, будучи поддерживаемой партиями дисторшированной гитары, звуки которой сродни налету бомбардировщиков. "Закат цивилизации" стоит очень в тему после бесноватого Hardcore, потому как снабжает мембраны наушников мягкими мелодиями, которые к koncу трэка становятся все более активно завязанными с ритм-секцией, что идет несколько вразрез с названием: если уж закат, то все должно по нисходящей идти, а тут - нарастает. Это дело исправляет кода: немного не дотягивающая до трех с половиной минут вещь a-la PUISSANCE, но с исключенной претензией на симфонизм и включенными "фирменными" ретро тембрами. Трип-хоповый с амбиентными интрузиями hidden track тоже очень-очень неплох и напоминает работы российского проекта НОВЫЕ КОМПОЗИТОРЫ, пожалуй, это один из лучших трэков на альбоме, так что "зарыли" его зря.
Намного больше внимания уделено работе с эффектами и звуком в общем, при этом небольшое количество "уцененных" обработок сэмплов все же имеется, нарушая общую приятственность прослушивания.
Рецензия от Valhalla.
Этот альбом записан Z и VS при помощи Садиста (гитары, программирование). Зная текущую тематику творчества и умения музыкантов, нетрудно было догадаться, что "[ex-Planet Earth]" выполнен в dark electro/ebm-ключе. Мы не знатоки такой музыки, имеем представление о творчестве SPAHN RANCH, HOCICO и AGHAST VIEW - этим и ограничиваемся. Судя по рецензиям на другие ebm-проекты, этого достаточно.
За что мы уже не первый год ценим ставропольцев, так или иначе собравшихся под крылом Macabre Productions - это за удивительное умение не тратить своё время на создание всякого псевдо-творческого отстоя. Каждый альбом, который приходит нам оттуда, слушается нами с удовольствием и нескрываемым интересом.
Первые 12 с половиной минут звучит среднетемповое, в меру шумное и мрачное dark electro. Трэк "Front Line" находится уже на границе с ритм'н'нойзом в силу диких скоростей и достаточно жёсткого нойзового наполнения. После небольшой передышки - звучание "Consumption" очень похоже на боевики бразильцев AGHAST VIEW - трио продолжило около-ритм'н'нойзовую активность в "Last Conflict". Гитары в этих трэках тщательно замаскированы "под шум".
"Цивилизация Зари" - отступление от зловещих и в той или иной мере жёстких трэков сперва в пользу традиционного электронного саунда с использованием арпеджиаторов. Приятная такая, простецкая пьеска на аналоговых тембрах...
Однако "Коньец" альбома звучит ещё более приятно... Начало длинного, почти 9-минутного трэка написано методами традиционной электроники в эстетике дарквэйва. Это значит, что в нём присутствует красивая грустная мелодия и совсем отсутствуют шумы. Минуты через 3 методы себя исчёрпывают и уходят в небытие, шумы так и не появляются, и, следовательно, наступает абсолютная тишина... Длится она, опять же, недолго, и прерывается приятной дабовой пьеской с урчащей басовой линией и абстрактными мелодиями, которые, в свою очередь, прерываются окончанием альбома.
Окончание альбома - хороший повод подвести итоги, а также составить общее впечатление об услышанном. Плохих или некачественных трэков здесь нет и в помине... два сонга - "Front Line" и "Last Conflict" - музыкально дисгармонируют с остальным материалом альбома, однако явно имеют концептуальную ценность, и потому их присутствие на "[ex-Planet Earth]" видится вполне оправданным. Последние две пьесы успешно рассеивают агрессию, собранную в предшествующих им композициях, навевая воспоминания об EONIC, а также ненавячиво показывая умение Z и VS писать не только dark electro. На этом мы позволим себе закруглиться, мысленно пожав напоследок десницы талантливых ставропольцев.
Рецензия от Острога.
drR56$^%ygf - как нибудь вот так начинается стандартный space-боевик: с демонстрации внешнего вида супер-силы и её порядкового номера. N-616 следует именно этому принципу открывая [Ex-Planet Earth] трэком "Bunker #616". VS последовательно продолжает концепцию электронных ужасов будущего. Выйдя из подземелий и катакомб со страшными монстрами и холодом, альбома Cold & Snow, VS устремляет свой взор в космическое пространство. Оттуда лучше видна уже Ex-Planet Earth. В целом же в новом альбоме представлен electronict/industrial местами с ambient инфлюациями. Конфликт развивается по мере прослушивания трэков: "Bunker #616", "Production", "Monsters". "Front Line" - пляска металла и фоновых синтезаторов с резко оборванной концовкой. Последний рывок в "Last Conflict" и апофеозом "Civilization of the Dawn". Казалось бы оплакивание в "Koniec" должно логически завершить альбом, но спустя две минуты молчания...
Рецензия от Black Alchemy.
Альбом имеет мало общего, как с предыдущим, так и с более ранними. По музыке это синтез EBM и Dark Electro. Присутствуют нойзовые, индустриальные и тяжёлые околометаллические составляющие. Помимо VS и Z на "[ex-Planet Earth]" участвует Sadist (гитары, программирование). Что мне сильно понравилось на этом релизе, так это его апокалиптический и тревожный настрой. Лучший трэк - деструктивный марш "Consumption". Здесь вообще многое звучит замечательно. Последние 2 трэка сильно мелодичные и несколько грустные. Обложка альбома сделана великолепно - лучшая из обложек N-616.
Рецензия от Shadowplay.
Если бы не знал, ни в коем случае вы не подумал, что это продукт все тех же ставропольцев, что обозревались выше под названием Eonic! После фантастической благодати услышанной в "Отражениях" и невразумительных попыток сделать "что-нибудь мрачненькое" в "Ничто не вечно..." все те же люди вдруг вываливают на меня EBM/power electronics вполне европейского уровня (справедливости ради оговорюсь, на паре трэков проект выдает то ли грайнд-кор, то ли блэк, сыгранный при помощи сэмплов и синтезаторов)! Бесконечно благодарен, что волею случая послушал пластинки именно в этом порядке :), ведь в противном случае впечатления остались бы все же негативные. Ну да ладно... Как уже говорилось выше, N-616 работают в русле power electronics / EBM старого, злобного образца. Причем, работают достойно - не сказать слушателю, что это россияне - сочтет за демку из далекой Буржуинии, больно уж сделано не по-нашенски... Не скажу, что до них подобного никто не делал, просто сразу бросается в глаза то, что нет в трэках N-616 излишней предсказуемости (в рамках стиля, конечно), которой грешат многие коллективы. В композициях можно проследить развитие темы, а не заранее определенную четкую последовательность паттернов. То, чего ожидаешь, может и не произойти и наоборот. Эта особенность, в общем-то, в сто крат перекрывает присутствие определенных штампов, свойственных направлению - я так и не могу понять, почему всех их так и подмывает сочинять опусы именно на темы катастроф, насилия или инвазии того или иного рода. Впрочем, здесь и с этим не все так уж стандартно: вроде бы кода альбома иллюстрирует закат цивилизации и/или гибель планеты, все холодно, мрачно, пустынно... НО! После паузы можно услышать достаточно продолжительный скрытый полу-трип-хоповый трэк. Что это? Намек на возможный оптимистический исход катастрофы?
Рецензия от Dark City.
Данный альбом есть прямая противоположность предыдущему релизу в плане полярности эмоций. Если на том царила, пускай и сдержанная, жизнерадостность, то здесь, сообразно названию, всё жёстко и бесчеловечно. Вплоть до того, что некоторые пассажи до удивления напоминают noise/martial альбомы известных мизантропов Veleentor, Альбом, равно как и его предшественники, оставляет впечатление весьма странное. Во-первых, это сложность эмоционального фона музыки: то перед нами неприкрытая радость, то столь же откровенная печаль. Ну а во-вторых если раньше имело место явное несоответствие духа музыки названиям треков, то сейчас -если судить по их названиям, события, ведущие к заявленной в наименовании альбома ситуации должны развиваться в обратном заявленному порядке. Запись чрезвычайно грязная и сырая. Где-то эта сырость - к примеру, в композиции "Front Line" - идёт на пользу, а где-то только портит впечатление, смазывая чёткость звука. Понятно, что денег на доведение звучания композиции "Consumption" до уровня тех же Laibach нет. Нет, само собой, и опыта. Тем не менее, большая часть материала, представленного на диске являет собой весьма качественный ЕВМ. Есть и композиции, сыгранные в ином ключе. Композиция "Last Conflict", к примеру, напоминает The Meads of Asphodel "Tanks ol the Holy Land" - тот же шум "на грани", сэмплы с поля боя.
Рецензия от Synthpop.ru.
"Музыкальные галлюцинации" "Ex-Planet Earth" и "Winter World III", ранее размножавшиеся на CD-R-ах и разлетавшихся по городам и весям в изувеченных российской почтовой службой конвертах-треугольниках, теперь переродились в виде завербованного Desolate Catacombs of SMERSH раритета, без лишней фешенебельности в оформлении и прочей заморской "диги-делюкс-спешиал-бокс" крикливости. Ставропольское гостеприимство и блокированные темным холодом ленинградские катакомбы - хлеб и соль терапевтической индустриальной субкультуры, надрывной и злобной, нойзом и криком, словно записанный в pSYONIC Labs под чутким наваждением щедро одаренного психическими расстройствами Брайана Эриксона.
Практически вегетарианская трапеза из казарменных харш-опусов с фрагментами изнеможенности и высокотемповых рисунков, со швейковской глумящейся туповатостью "садиста с гитарой" обугливающих стремительный и рвано-мелодичный electro industrial с обилием сэмплов пыток сталью носоглотки, скрытые балаклавой псевдонимов VS & Z - тандем стоящих под стрелой собственного "Charlie Don't Surf" риповальщиков маргинальных импровизаций - колдуют над алхимией включения резкости в каждый бит и отключением эмотиконов в максимально напряженной экспрессии плотной электроники с вырывающейся протуберанцами жестью. Ярко пылающий въедливый ацетон саундскейпов раздражительного порядка, нарубленных не топорно, умеючи и по-хозяйски, для риветхэдов, не снисходящих до мухоморов в майонезной приправе, но ложащихся грузом 200 на амбразуры с матюгами "Come Armageddon, come!", с пробитыми пулей-дурой отверстиями в хранящимися в нагрудном кармане гимнастерки билетом на Mlada Fronta и литографией фоторобота пластинки N-616, сделанным незадолго до взятия ими futurep00p высоты "Futurepolis".
Рецензия от Pups'а.
Совершенно очаровательный в своей противогазной свирепости и противопожарной уверенности музон. Т.е. если вот раньше действительно была проблема выбрать из десятка электронных команд что-то по-настоящему интересное и оригинальное, то в случае с этим ставропольским проектом все становится на свои места и разговоры о становлении в России индустриальной и электронно-экспериментальной музыки обретают здравый смысл. Музыку этого проекта действительно очень сложно отнести к какому-то конкретному жанру. Но мне кажется, что это все-таки больше electro, чем industrial. Хотя названия треков так и говорят сами за себя - "Bunker#616", "Production", "Frontline" и все в таком духе… Кстати ассоциации с Frontline Assembly пожалуй были самыми оправданными. И музыка похожа и даже некоторые тематические электронные фишки как будто похожи… Это говорит не о том, что слизано, а о том, что уровень у ребят ого-го какой. И этим уже можно гордиться. Кстати помимо всего прочего, релиз довольно-таки хорошо оформлен и подан в таком цветастеньком конвертике с очень жизнеутверждающим рисунком, что для дебютных работ молодых электронных проектов большая редкость. Говорить о том, что ребятам пора уже выходить на солидном лейбле конечно не приходиться. Все мы прекрасно знаем, в какой стране и в какое время мы живем. Однако мне бы очень хотелось, чтобы музыку этого замечательного проекта послушало как можно больше правильного народца. Ибо так надо.
[Winter World III]:
Рецензия от Dark Industry.
Мини-альбом начинается с довольно агрессивного EBM-трека с малограмотным названием "Citizens Kills Citizens" с чистым, но жёстким звуком, изобилием сэмплов на тему гражданской боевой деятельности и индустриальным вокалом. Композиция весьма похожа на ранних PSYCHOPOMPS. "Another..." - спокойная меланхоличная мелодия, клавишные на тихим фоне из искажённых помех, размеренный ритм. В последних двух треках ритм продолжает замедляться, к десятиминутному "Winter World" приобретая скорость funeral doom. Тягучие, обволакивающие клавишные и скрипучие зловещие сэмплы подчёркивают сходство: не хватает только гитар и горестного рыка.
Качество музыки N-616 удивляет нас всё больше: кажется, что слушаешь не демо на CD-R, присланное из Ставрополя, а записанный в дорогой студии и выпущенный десятитысячным тиражом диск известной группы. Может быть, ребята решили нас разыграть и прислали нам под видом своей музыки каких-нибудь классиков стиля? Если выяснится, что это так, мы от разочарования приедем в Ставрополь и всех перережем. Но вероятность такого безобразного надувательства неразличимо мала, из чего следует, что музыкой N-616 можно поставить на место всякого, кто пытается оправдать дерьмовое качество своей электронной музыки её "андеграундностью", отсутствием денежных средств и прочей лабудой. Совершенно профессиональная и очень интересная запись.
Рецензия от Ether.
Очередное демо от N-616. Композиции уже не такие сверхскоростные; амбиентной составляющей уделено больше внимания. Очень красивая музыка. Обработка семплов стала еще более бережной и аккуратной. В "Citizens Kill Citizens" амбиентные фрагменты чередуются с агрессивными ритмами. Все это смешано со щелчками затвора, ревом сирен и грохотом взрывов. Чувствуется печаль и... холод. "Another..." выполнен в аналогичном ключе: атмосферные мелодии и биты среднего темпа. Чувство неизбежности и рока. Вся работа кажется мне апокалиптичной и мрачной. Все та же амбиентная мелодика "A Day Without Light" выливается в агрессивные рейвоподобные сбивки. Десятиминутная "Winter World" постоянно меняется и движется. Обилие семплов делает композицию еще более интересной. Стилистически все выдержано в едином ключе, что делает работу единым произведением, а не случайным собранием композиций. ПОКА ЧТО альбом не издан. Рекомендую к прослушиванию всем, кто считает, что в России мало хороших исполнителей. Эта работа в корне изменит ваши прежние представления.
Рецензия от Ultima Ratio.
Z и VS штампуют музыку в таком количестве, что едва я успеваю написать рецензии на прошлую посылку, как уж приходит новая с еще парой работ.
Итак, к четвертой записи N-616 я могу сказать следующее: коллектив все более и более движется в сторону главнопоточной сцены, потихоньку подсаживаясь на скамейку к каким-нибудь SKINNY PUPPY и прочим подобным "индустриальщикам". По пути от демо 'Snow' к миньону 'WWIII' - прямо World War III - дуэт все больше внимания уделяет структуре композиций, местами готовых разбиться на куски "куплет-припев", что хорошо, потому что смазанные и нечеткие контуры необъятных полуимпровизаций на альбомах, что издал Доктор Ф., лично мне нравились в меньшей степени, нежели ясные и по-военному чисто разлинованные аранжировки 'WWIII'.
Первый трэк - боевик со сменами темпа и "жирной" аранжировкой как раз сродни SKINNY PUPPY, как мне слышится, хотя в центральной части какое-то эхо GORDUW звучит. Второй трэк - упрощенная версия позднего ULVER ('Silence teaches you how to sing') с мартиальной мелодией, немного затянутое начало, но в целом достойно. Основная тема "День без света" чем-то напоминает мелодию из трэка "Whatever that hurts", ремикс на который сделали N-616 и которая была также мне прислана в составе сборника переделок 'Silentium Universi'. Заключительная вещь идет целых 10 минут, уныло и без всякого развития попискивая и скрежеща в начале как забытый в снегах полярник, тщетно пытающийся среди звуков вьюги вычленить из радиоэфира хоть какие-нибудь человеческие слова. Немного не доходя до середины, она обогащается более-менее четкой мелодией, хотя я бы предпочел так до конца и слушать открывающий Ambient, но вот его мне и возвратили где-то за пару минут до финала.
Профессиональная работа с четком прослеживающимся концептом - от гражданских волнений через пост-колебания и неопределенность к миру вечной ядерной зимы.
Рецензия от Industrial.onego.ru.
Чрезвычайно медленно, но все же, набирая темпы, развеивается миф о том, что в родных постсоветских краях, взращенных на полузапрещенном роке, электронная музыка современного западного образца не может прижиться. С отставанием, но мы подтягиваем свои силы к мировому стандарту. При этом если, к примеру, idm уже прочно пустил корни во многих российских творческих умах, заставляя их ощутимо плодоносить, то явление индустриального звучания пока еще изучено мало. Ставропольский проект N-616 - лишь четвертая или пятая попытка освоить методики схематического строения и звукового наполнения, которыми уже давно щеголяют Haujobb, Numb и иже с ними, которая попала за последние три года в мою коллекцию. Попытка, как мне кажется, крайне удачная, поскольку имеет комплексный характер - работа проведена как в направлении звучания, так и в направлении качества записи. В этом плане порадовал безвокальный альбом "ex-Planet Earth", предвосхищающий объект сегодняшнего обзора и датированный 2003-м годом. В нем мастерски (учитывая практически отсутствие родных аналогов) реализованы инструментальные структуры, наполненные простыми, но удачными синтезаторными проигрышами, сэмплами и мясистой промежуточным содержанием. Кое-кто даже обвинил материал в чуть ли не импровизационности, но, на мой взгляд, смещения, переходы и внезапные смены только украшают музыку, не подчиненную требованию служить фоном вокалу. Именно этого элемента свободы как раз и не хватает в "Winter World III", в котором треки приобрели большую осанку и четкую выправку, сразу как-то проигрывая - владение технологией налицо, но музыкальная составляющая уже не настолько увлекательна. Особенно это касается вступительного боевика Citizens Kill Citizens и следующей за ней размеренной вещи Another..., основанных на бесконечном повторении основного мотива. Мне кажется, для завоевания аудитории ее нужно угостить более изобретательной по структуре музыкой. Но как бы там ни было, N-616 вообще и "Winter World III" - серьезная российская заявка на приобщение к современному мировому электро-индустриальному сообществу.
Рецензия от Острога.
По впечатлению, альбом похож на [ex-Planet Earth] ...выхваченный, более короткий, но детально рассмотренный кусок ядерной зимы. Citizens Kill Citizens звучит как продолжение чего-то, что никогда не кончалось. В принципе реальность сама за себя говорит: человек, как убивал себе подобных, так и продолжает, только в будущем ареной для убийства послужат огромные мегаполисы, там есть куда спрятаться, когда идёт перестрелка, да и магазины тоже есть. Another...(панорамная картина, догадайся чего) A day without light, барабаны медленно скребут по стене, тяжко. Вся такая мрачная, электронная, изящная смерть патрулирует улицы города. Цветовая палитра не особо пестрит, гамма от глухих холодных до чёрного. Winter World, зима - последняя стадия доработки великого шедевра войны, с легким налетом индустриального звучания иней обхватывает последний этаж небоскрёба, кривая антенна на его вершине не успела послать даже сигнал SOS (кому?). Постепенно отрываешься от земли, медленно, всё в том же темпе... Только холод и звёзды...
Рецензия от Dark City.
В целом этот мини-альбом похож на 'Ex-ptanet Earth", причём как музыкально, так и по смыслу. Тем более что здесь присутствует исполненный неясной тревогой трек "Citizens Kill Sitizens". Могуч и трек "Winter World" - длительностью в 10 минут, он напоминает творения Skepticism или ему подобных титанов funeral doom. Естественно, с поправкой на отсутствие гитар и вокала. Трек "Alone in the Dark" в свою очередь напоминает ранних Puissance. Что ни говори, N-616 является значительной фигурой в российском андеграунде, создавая при этом доступную для массового слушателя музыку.
Код:
[imgright]http://i65.fastpic.ru/big/2014/1102/ad/db2718476723ae4dc57319438a414ead.jpeg[/imgright]1. Neuro Express
2. Party Line
3. Futurepolis
4. Cloud-City
5. Mother Ship
6. Spacewalk
7. Far
8. Landless Sea
9. Generation D
10. The Final Blow
Exact Audio Copy V1.0 beta 1 from 15. November 2010
EAC extraction logfile from 18. January 2011, 20:30
N-616 / Futurepolis
Used drive : PLEXTOR DVDR PX-810SA Adapter: 4 ID: 0
Read mode : Secure
Utilize accurate stream : Yes
Defeat audio cache : Yes
Make use of C2 pointers : No
Read offset correction : 48
Overread into Lead-In and Lead-Out : No
Fill up missing offset samples with silence : Yes
Delete leading and trailing silent blocks : No
Null samples used in CRC calculations : Yes
Used interface : Native Win32 interface for Win NT & 2000
Used output format : User Defined Encoder
Selected bitrate : 128 kBit/s
Quality : High
Add ID3 tag : No
Command line compressor : D:\Program Files (x86)\Exact Audio Copy\Flac\flac.exe
Additional command line options : -8 -V %s
TOC of the extracted CD
Track | Start | Length | Start sector | End sector
---------------------------------------------------------
1 | 0:00.00 | 3:32.07 | 0 | 15906
2 | 3:32.07 | 3:47.17 | 15907 | 32948
3 | 7:19.24 | 3:44.40 | 32949 | 49788
4 | 11:03.64 | 1:43.52 | 49789 | 57565
5 | 12:47.41 | 3:48.26 | 57566 | 74691
6 | 16:35.67 | 3:18.03 | 74692 | 89544
7 | 19:53.70 | 3:17.59 | 89545 | 104378
8 | 23:11.54 | 2:52.32 | 104379 | 117310
9 | 26:04.11 | 3:18.60 | 117311 | 132220
10 | 29:22.71 | 9:43.12 | 132221 | 175957
11 | 39:06.08 | 3:01.68 | 175958 | 189600
12 | 42:08.01 | 5:49.68 | 189601 | 215843
Range status and errors
Selected range
Filename D:\Users\S\Desktop\N-616\2004 - Futurepolis\N-616 - Futurepolis.wav
Peak level 95.8 %
Extraction speed 0.8 X
Range quality 100.0 %
Test CRC 27C4C191
Copy CRC 27C4C191
Copy OK
No errors occurred
AccurateRip summary
Track 1 not present in database
Track 2 not present in database
Track 3 not present in database
Track 4 not present in database
Track 5 not present in database
Track 6 not present in database
Track 7 not present in database
Track 8 not present in database
Track 9 not present in database
Track 10 not present in database
Track 11 not present in database
Track 12 not present in database
None of the tracks are present in the AccurateRip database
End of status report
Рецензия от Synthpop.ru.
После самостийной записи и издания незатейливого психоневрологического сюжета из истории существовавшей когда-то третьей планеты от Солнца (пластинка [ex-Planet Earth], VS и Z (по новорусской традиции герои скрываются под малозначащими псевдонимами) почти радикально изменили стиль своего поведения в музыкальном плане, проведя на этот раз драйв-тест территорий futurepop. Вообще, разумные исследовательская плодовитость и поисковые метания по жанрам, присущие дуэту, весьма похвальны и привлекательны. В итоге, выбравшись из бездонных глубин трехлитровых банок прошлых альбомов, N-616 бросил якорь где-то в будущем измерении, вблизи поселения "Futurepolis". Географически "Futurepolis" расположен по соседству с "пупами" недалекой заграницы, где-то чуть ниже высоты Assemblage 23 и чуть дальше долготы XP8. Местность еще не совсем обычная, достаточно неистоптанная, с четко выраженным трансовым рельефом, жирная и плодородная. Более точные координаты N-616 вряд ли нужны, можно просто спросить у прохожих про интенсивность ритмов Z Prochek или про душевность Colony 5, а дальше язык доведет. Только вот совсем плохо с голосистыми самородками в Ставрополе… Большой изъян (imfho), что в таком стратегически нужном месте и столь важное время полностью отсутствует глас вопиющий. Упрек в адрес артистов может показаться некорректным, но почему бы, следуя традиции разнообразия с некоторой примесью непоследовательности, не испробовать вокальные вливания в творчество группы на последующих стадиях? Хотя бы в угоду эксперименту … Резюмируя пожелания, можно напутствовать господ из N-616 прямым попаданием "Futurepolis" на стол Дэйву Хэкману [Dave Heckman] на подпись проекта!
Рецензия от Shadowplay.
Люди, скрывающиеся за буквами Z и VS удивляют своим диапазоном исканий. И на ниве эмбиэнта и нью-эйджа под названием Eonic трудятся, и угрожающие ритмические нойзы под цифробуквенным псевдонимом N-616 строят. А теперь вот курс на более увеселительные futurepop и ebm своим новым альбомом "Futurepolis" взяли (но и здесь, видимо, удержаться не смогли, добавили катастрофичности - последний трэк недвусмысленно называется The Final Blow).
Надо сказать, есть у N-616 все шансы дать хорошего пинка иным забугорным звездам и отвоевать свое место на отечественных танцполах, а там, глядишь, и дальше дело зайти может. Материал здорово и аккуратно сделан, достаточно хитов, уверенно балансирует, не проваливаясь в совсем уж pop, но и излишней жесткости не допуская. Да и названия контенту даны такие, что редкого поп-футуриста и тайного космонавта не проберет сладкая дрожь томления: Neuro Express, Futurepolis, Mother Ship, Generation D и проч. Только вот одно, на мой взгляд, сдерживает ногу от того самого удара, освобождающего готические дансинги от иноземных захватчиков - отсутствие вокалов или хотя бы голосовых сэмплов. Ох, как их здесь не хватает... Если б не это - можно было бы поставить абсолютно твердую пятерку. Правда, как оказалось, после записи материала дуэту удалось-таки найти вокалистку, так что все еще впереди! Ешь микрочипы и сэнсоры жуй, день твой последний приходит, буржуй!
Рецензия от Dark City.
Те, кому интересен альбом Laibach 'NATO' или на худой конец ранние альбомы Жана Мишеля Жарра - вам прямая дорога во 'Futurepolis'. Выпустивший недавно два достаточно экстремальных альбома - 'Ex-planet Earth' и 'Winter World III' - коллектив удалился в строительство светлого будущего посредством популярного в наше время метода, именуемого synthpop. К слову, музыканты предпочитают именовать свой стиль futurepop, но я принципиальной разницы в музыкальном плане не вижу. Грань между двумя стилями лежит скорее в сферах идеологии. С последним, кстати, у N-616 полный порядок, как, впрочем, и с музыкой. Футуристические полотна, создаваемые коллективом выглядят донельзя убедительно и солидно. При этом как-то незаметно ушла в прошлое 'детская болезнь' грязного звука, оставив нам для созерцания кристально чистые, ничем не замутненные видения мира будущего. Под эту музыку хорошо просматривать старые - годы за пятидесятые - подшивки журнала "Техника-молодежи". Иллюстрациии к проектам локомотивов с ядерной тягой, глобальных систем освещения, городов с домами из стекла и стали, каплевидных авто. Под воздействием музыки N-616 все это оживает... но тут альбом заканчивается и тебя выбрасывает обратно в день сегодняшний. В день сегодняшний мира, у которого нет будущего.
Рецензия от Rolling Stone.
Два альбома N-616 - проекта из Ставрополя, образованного в 2000 году двумя персонажами, спрятавшимися под никами VS и Z. Начали с dark ambient/industrial, но, по собственным словам, метнулись в сторону и начали утаптывать пространство от darkwave до ebm. Два последних опуса выдержаны в futerpop/ebm с элементами synth-pop. Все выверено и вкусно и настолько хорошо, что иные слушатели подозревают N-616 в намеренной провокации - разрушении этих стилей изнутри, и считают насмешкой над электронной музыкой данного плана.
Рецензия от Pups'а.
Еще одна пластинка ставропольского проекта, который мне очень понравился и который мы обязательно будем продвигать дальше. Название пластинки говорит само за себя - музыка городов будущего или как-там еще можно перевести это название… Одним словом тот-же танцевальный или что-то около-того, индастриал с подозрительно качественным уходом то в IDM, то в электро, поражающий своей бескомпромиссностью и удивительным для провинциального проекта качеством и что называется продюсингом… Некоторые из композиций с этой пластинки я бы поставил во всеми любимый "Ночной дозор" вместо набивших оскомину УмаТурман, да ведь никто не позволит, да и больно хотелось. Учитывая тот факт, что композиции проекта имеют "чиста" инструментальный", т.е. не несущий в себе смыслового накала характер, а посему обладают даром некой эклектики, что в данном случае идет им только во плюс.
Проект N-616 образован в 2000 году. Первоначально звучание было выдержано в Industrial ключе. Результатом работы в 2000 году стало демо "Snow". В течение 2001 года было записано демо "Cold", содержащее в себе уже больше элементов разных стилей от Darkwave до EBM. В 2002 году этот материал был доработан и реализован на Folvork prod. в виде альбома "Cold & Snow". Дальнейшая эволюция проекта привела к альбому "Electro Paradigm Of Futurism", который содержал более электронный и экспериментальный материал. Он был издан в 2003 году на том же лейбле. В конце 2003 года был записан альбом [ex-Planet Earth], работа, содержащая в себе EBM с различными примесями. Зима 2004 года отмечена миниальбомом "Winter World III". В 2005 году материал "Ex-Planet Earth" и "Winter World III" был издан лейблом Desolate Catacombs of Smersh. Последнее творение коллектива это альбом "Futurepolis" (2004 год). Звучание на этом альбоме можно охарактеризовать как Techno/EBM. На данный момент проект заморожен.
Создатели N-616 более известны по своему проекту EONIC (Ambient/New Age), проекту FLOOR SEVEN (Electropop) и сотрудничеству с петербургским диск жокеем и продюсером DJ Special (Discolies).
http://vkontakte.ru/club6928427
http://www.discogs.com/artist/N-616
https://rutracker.org/forum/viewtopic.php?t=3379810 - N-616 - Дискография 2002-2004 mp3
https://rutracker.org/forum/viewtopic.php?t=3327178 - Eonic - Дискография 2002-2010 mp3
https://rutracker.org/forum/viewtopic.php?t=3327139 - Eonic - Дискография 2002-2010 lossless
http://popmarket.ru/ - здесь можно приобрести CD-версию альбома "[ex-PlanetEarth]"
http://zhb.radionoise.ru/rus/distro.html - здесь тоже можно приобрести CD-версию альбома "[ex-PlanetEarth]"
Правила, инструкции, FAQ!!!
Торрент  Добавлен [26 июн 2020, 20:08] Скачать торрент Магнет ссылка
Скачать торрент
[ Размер 16.72 КБ / Просмотров 6 ]

Статус
Проверен 
 
Размер  1.42 ГБ
Приватный: Нет (DHT включён)
.torrent скачан  0
 


     Отправить личное сообщение
   
Страница 1 из 1
Показать сообщения за:  Поле сортировки  
Начать новую тему Ответить на тему


Сейчас этот форум просматривают: нет зарегистрированных пользователей и гости: 0


Вы не можете начинать темы
Вы не можете отвечать на сообщения
Вы не можете редактировать свои сообщения
Вы не можете удалять свои сообщения
Вы не можете добавлять вложения

Перейти:  
cron