Начать новую тему Ответить на тему
Статистика раздачи
Размер: 282.51 МБ | Добавлен: 26 июн 2020, 16:50 | Скачали: 0
Сидеров: 0  [0 байт/сек]    Личеров: 0  [0 байт/сек]
Пред. тема | След. тема 

Автор
Сообщение

СообщениеДобавлено: 26 июн 2020, 16:50 

Ответить с цитатой 

à;GRUMH... / Bloody Side
Жанр: Industrial, Electro
Страна-производитель диска: Belgium
Год издания диска: 1988
Издатель (лейбл): Play It Again Sam Records
Номер по каталогу: BIAS 85 CD
Страна: Belgium
Аудио кодек: FLAC (*.flac)
Тип рипа: tracks+.cue
Битрейт аудио: lossless
Продолжительность: 00:47:24
Наличие сканов в содержимом раздачи: да (discogs.com)
Треклист:
01. Kill (05:59)
02. Nguu (Petite Fugue) (04:11)
03. Wizard Needs Food (04:00)
04. Gruppo Atletico (03:15)
05. M.D.A. (05:54)
06. 2112 (06:02)
07. The Bumf (04:06)
08. In The Garden (03:54)
09. Caterpillar (02:36)
10. Drama In The Subway (04:52)
11. Another Brick In The Wall Part II (02:57)
Код:
Exact Audio Copy V0.99 prebeta 4 from 23. January 2008
EAC extraction logfile from 13. December 2008, 14:07
а;GRUMH... / Bloody Side
Used drive  : HL-DT-STDVDRAM GSA-H42L   Adapter: 1  ID: 0
Read mode               : Secure
Utilize accurate stream : Yes
Defeat audio cache      : Yes
Make use of C2 pointers : No
Read offset correction                      : 667
Overread into Lead-In and Lead-Out          : No
Fill up missing offset samples with silence : Yes
Delete leading and trailing silent blocks   : No
Null samples used in CRC calculations       : Yes
Used interface                              : Installed external ASPI interface
Gap handling                                : Appended to previous track
Used output format              : User Defined Encoder
Selected bitrate                : 320 kBit/s
Quality                         : High
Add ID3 tag                     : No
Command line compressor         : C:\Programme\Exact Audio Copy\Flac\flac.exe
Additional command line options :  -8 -V -T "ARTIST=%a" -T "TITLE=%t" -T "ALBUM=%g" -T "DATE=%y" -T "TRACKNUMBER=%n" -T "GENRE=%m" -T "COMMENT=EAC FLAC -8" %s
TOC of the extracted CD
     Track |   Start  |  Length  | Start sector | End sector
    ---------------------------------------------------------
        1  |  0:00.00 |  5:59.25 |         0    |    26949
        2  |  5:59.25 |  4:11.52 |     26950    |    45826
        3  | 10:11.02 |  4:00.05 |     45827    |    63831
        4  | 14:11.07 |  3:15.05 |     63832    |    78461
        5  | 17:26.12 |  5:54.18 |     78462    |   105029
        6  | 23:20.30 |  6:02.20 |    105030    |   132199
        7  | 29:22.50 |  4:06.52 |    132200    |   150701
        8  | 33:29.27 |  3:54.30 |    150702    |   168281
        9  | 37:23.57 |  2:36.48 |    168282    |   180029
       10  | 40:00.30 |  4:52.47 |    180030    |   201976
       11  | 44:53.02 |  2:57.73 |    201977    |   215324
Track  1
     Filename C:\_seeds\а;GRUMH... () Bloody Side [flac]\01 - Kill.wav
     Pre-gap length  0:00:02.00
     Peak level 96.4 %
     Track quality 99.8 %
     Test CRC CEDD3F24
     Copy CRC CEDD3F24
     Cannot be verified as accurate (confidence 4)  [DFA03793], AccurateRip returned [CD2F9491]
     Copy OK
Track  2
     Filename C:\_seeds\а;GRUMH... () Bloody Side [flac]\02 - nGuu (Petite Fugue).wav
     Pre-gap length  0:00:02.84
     Peak level 95.3 %
     Track quality 99.9 %
     Test CRC 9FF916BE
     Copy CRC 9FF916BE
     Cannot be verified as accurate (confidence 5)  [048A5131], AccurateRip returned [29D90E64]
     Copy OK
Track  3
     Filename C:\_seeds\а;GRUMH... () Bloody Side [flac]\03 - Wizard Needs Food.wav
     Pre-gap length  0:00:02.29
     Peak level 90.6 %
     Track quality 99.9 %
     Test CRC F036FD82
     Copy CRC F036FD82
     Cannot be verified as accurate (confidence 5)  [66DDC342], AccurateRip returned [295CB312]
     Copy OK
Track  4
     Filename C:\_seeds\а;GRUMH... () Bloody Side [flac]\04 - Gruppo Atletico.wav
     Pre-gap length  0:00:03.02
     Peak level 84.5 %
     Track quality 100.0 %
     Test CRC A954574C
     Copy CRC A954574C
     Cannot be verified as accurate (confidence 5)  [67D8328E], AccurateRip returned [9659C2F8]
     Copy OK
Track  5
     Filename C:\_seeds\а;GRUMH... () Bloody Side [flac]\05 - M.D.A..wav
     Pre-gap length  0:00:02.89
     Peak level 89.0 %
     Track quality 100.0 %
     Test CRC 2A45180A
     Copy CRC 2A45180A
     Cannot be verified as accurate (confidence 4)  [413B8560], AccurateRip returned [07FD7388]
     Copy OK
Track  6
     Filename C:\_seeds\а;GRUMH... () Bloody Side [flac]\06 - 2112.wav
     Pre-gap length  0:00:02.80
     Peak level 100.0 %
     Track quality 99.9 %
     Test CRC EB303501
     Copy CRC EB303501
     Cannot be verified as accurate (confidence 4)  [0A62D576], AccurateRip returned [C733A63C]
     Copy OK
Track  7
     Filename C:\_seeds\а;GRUMH... () Bloody Side [flac]\07 - The Bumf.wav
     Pre-gap length  0:00:02.20
     Peak level 85.9 %
     Track quality 99.9 %
     Test CRC BFE0CCD1
     Copy CRC BFE0CCD1
     Cannot be verified as accurate (confidence 4)  [3FDBA1D8], AccurateRip returned [81C7F0DA]
     Copy OK
Track  8
     Filename C:\_seeds\а;GRUMH... () Bloody Side [flac]\08 - In The Garden.wav
     Pre-gap length  0:00:02.26
     Peak level 85.1 %
     Track quality 100.0 %
     Test CRC 8D5BBF69
     Copy CRC 8D5BBF69
     Cannot be verified as accurate (confidence 5)  [B1E2ADCB], AccurateRip returned [12CC8BF0]
     Copy OK
Track  9
     Filename C:\_seeds\а;GRUMH... () Bloody Side [flac]\09 - Caterpillar.wav
     Pre-gap length  0:00:02.93
     Peak level 81.6 %
     Track quality 100.0 %
     Test CRC AA6807F9
     Copy CRC AA6807F9
     Cannot be verified as accurate (confidence 5)  [74597807], AccurateRip returned [18997382]
     Copy OK
Track 10
     Filename C:\_seeds\а;GRUMH... () Bloody Side [flac]\10 - Drama in The Subway.wav
     Pre-gap length  0:00:03.13
     Peak level 83.3 %
     Track quality 100.0 %
     Test CRC 2C949F2C
     Copy CRC 2C949F2C
     Cannot be verified as accurate (confidence 5)  [FBF02F2C], AccurateRip returned [2522CA42]
     Copy OK
Track 11
     Filename C:\_seeds\а;GRUMH... () Bloody Side [flac]\11 - Another Brick In The Wall part II.wav
     Pre-gap length  0:00:01.82
     Peak level 86.5 %
     Track quality 100.0 %
     Test CRC B08183A2
     Copy CRC B08183A2
     Cannot be verified as accurate (confidence 4)  [758FA013], AccurateRip returned [5E054871]
     Copy OK
No tracks could be verified as accurate
You may have a different pressing from the one(s) in the database
No errors occurred
End of status report
Код:
REM DATE 1988
REM DISCID 7B0B370B
REM COMMENT "ExactAudioCopy v0.99pb4"
PERFORMER "а;GRUMH..."
TITLE "Bloody Side"
FILE "01 - Kill.wav" WAVE
  TRACK 01 AUDIO
    TITLE "Kill"
    PERFORMER "а;GRUMH..."
    INDEX 01 00:00:00
  TRACK 02 AUDIO
    TITLE "nGuu (Petite Fugue)"
    PERFORMER "а;GRUMH..."
    INDEX 00 05:56:37
FILE "02 - nGuu (Petite Fugue).wav" WAVE
    INDEX 01 00:00:00
  TRACK 03 AUDIO
    TITLE "Wizard Needs Food"
    PERFORMER "а;GRUMH..."
    INDEX 00 04:09:30
FILE "03 - Wizard Needs Food.wav" WAVE
    INDEX 01 00:00:00
  TRACK 04 AUDIO
    TITLE "Gruppo Atletico"
    PERFORMER "а;GRUMH..."
    INDEX 00 03:57:03
FILE "04 - Gruppo Atletico.wav" WAVE
    INDEX 01 00:00:00
  TRACK 05 AUDIO
    TITLE "M.D.A."
    PERFORMER "а;GRUMH..."
    INDEX 00 03:12:13
FILE "05 - M.D.A..wav" WAVE
    INDEX 01 00:00:00
  TRACK 06 AUDIO
    TITLE "2112"
    PERFORMER "а;GRUMH..."
    INDEX 00 05:51:33
FILE "06 - 2112.wav" WAVE
    INDEX 01 00:00:00
  TRACK 07 AUDIO
    TITLE "The Bumf"
    PERFORMER "а;GRUMH..."
    INDEX 00 06:00:05
FILE "07 - The Bumf.wav" WAVE
    INDEX 01 00:00:00
  TRACK 08 AUDIO
    TITLE "In The Garden"
    PERFORMER "а;GRUMH..."
    INDEX 00 04:04:32
FILE "08 - In The Garden.wav" WAVE
    INDEX 01 00:00:00
  TRACK 09 AUDIO
    TITLE "Caterpillar"
    PERFORMER "а;GRUMH..."
    INDEX 00 03:51:35
FILE "09 - Caterpillar.wav" WAVE
    INDEX 01 00:00:00
  TRACK 10 AUDIO
    TITLE "Drama in The Subway"
    PERFORMER "а;GRUMH..."
    INDEX 00 02:33:38
FILE "10 - Drama in The Subway.wav" WAVE
    INDEX 01 00:00:00
  TRACK 11 AUDIO
    TITLE "Another Brick In The Wall part II"
    PERFORMER "а;GRUMH..."
    INDEX 00 04:50:60
FILE "11 - Another Brick In The Wall part II.wav" WAVE
    INDEX 01 00:00:00
#777В 1981 году бельгийцы S.3 Evets и P.3 Lacsap, возвращаясь с брюссельского рок-концерта в свой родной Шарлеруа, придумали очередную идею для воплощения в своих музыкальных экзерсисах - музыкальное произведение, основанное на названиях овощей и фруктов. Они назвали это произведение Poireau, а проект, под которым оно исполнялось - a;GRUMH…, каковое название сразу вошло в историю музыки как одно из самых труднопроизносимых. Очень быстро они записывают множество индустриальных и ритмических электронных композиций, многие из которых никогда не были изданы и по сей день. Уже в 1981 году они начинают активно концертировать, некоторые записи их концертов впоследствии были изданы в рамках Titicaca Collection на магнитных кассетах. В 1982 году группа дает совместный концерт с Hard-Capella, и член этой группы становится вскоре третьим участником a;GRUMH… под псевдонимом J.3 Seuqcaj. Так формируется так называемый «мистический состав», с которым группа концертирует вплоть до 1985 года.
В 1985 году незадолго до записи первого сингла a;GRUMH…, Mix Yourself, из группы по личным соображениям уходит P.3 Lacsap. На его место приходит давний друг группы P.4 Lacsap, однако вскоре также покидает группу. На последнем концерте с P.4 в составе a;GRUMH… творился такой беспредел (музыканты набрали на ближайшей бойне бычьих и свиных глаз, которыми потом кидались в зрителей, а P.4 облился с ног до головы кокосовым маслом и пытался извлечь звуки из сварочного аппарата), что поползли слухи о «великом злом гуру» S.3, который из-за кокосового масла якобы принудил P.4 уйти из группы и уехать на несколько лет в Патагонию. Впоследствии P.4 стал известным звукоинженером европейского кинематографа.
После записи Mix Yourself группа записывает еще один сингл, Rebearth, выполенный в принципиально ином, индустриально-эмбиэнтном стиле. Музыканты захотели таким образом реализовать свой план по параллельной карьере двух ипостасей группы под одним названием. Однако слушатели, ошарашенные сменой стиля на Rebearth, с большим подозрением отнеслись к очередному синглу, No Way Out (1986), и компания Play It Again Sam!, на которой издавались a;GRUMH…, отговорила музыкантов от этого плана. Для индустриальной музыки был создан проект Negapadres.3.3, который затем выпустил еще только один сингл в 1988 году. Некоторое время группа исполняет на концертах как композиции с Mix Yourself, так и старые свои песни, но с момента выхода No Way Out на концертах исполняются только только те трэки, которые были изданы начиная с 1985 года.
В 1986 году выходит сингл Underground, на котором была композиция, которая, предположительно, приносит группе мировую известность - римейк пинкфлойдовской Another Brick In The Wall. После этого карьера группы развивается с головокружительной быстротой. В течение последующих трех лет они записывают несколько компакт-дисков и выпускают еще с полдюжины синглов. Однако на первом месте у музыкантов всегда остается концертная деятельность.
В июне 1990 года года J.3 и S.3 очень серьезно ссорятся и перестают разговаривать друг с другом. Таким образом, a;GRUMH… прекращает свое существование. Но… Потихоньку помирившись в 2001-м, дуэт снова берется за клавиши, вспомнив о своем давно забытом проекте Negapadres.3.3. Композиция этого проекта появляется на сборнике 2002 года Statement 1961, а сами музыканты планируют вскоре выпустить под этим названием полноформатный альбом.
Правила, инструкции, FAQ!!!
Торрент  Добавлен [26 июн 2020, 16:50] Скачать торрент Магнет ссылка
Скачать торрент
[ Размер 12.25 КБ / Просмотров 4 ]

Статус
Проверен 
 
Размер  282.51 МБ
Приватный: Нет (DHT включён)
.torrent скачан  0
 


     Отправить личное сообщение
   
Страница 1 из 1
Показать сообщения за:  Поле сортировки  
Начать новую тему Ответить на тему


Сейчас этот форум просматривают: нет зарегистрированных пользователей и гости: 0


Вы не можете начинать темы
Вы не можете отвечать на сообщения
Вы не можете редактировать свои сообщения
Вы не можете удалять свои сообщения
Вы не можете добавлять вложения

Перейти:  
cron