Начать новую тему Ответить на тему
Статистика раздачи
Размер: 478.74 МБ | Добавлен: 26 июн 2020, 19:46 | Скачали: 0
Сидеров: 0  [0 байт/сек]    Личеров: 0  [0 байт/сек]
Пред. тема | След. тема 

Автор
Сообщение

СообщениеДобавлено: 26 июн 2020, 19:46 

Ответить с цитатой 

Front Line Assembly - Millennium [Roadrunner Records]
Страна: Canada
Жанр: Industrial, Electro
Год выпуска: 1994
Формат: FLAC (tracks+.cue)
Битрейт аудио: lossless
Продолжительность: 62:54
Трэклист:
1 Vigilante (6:28)
2 Millennium (6:10)
3 Liquid Separation (5:05)
4 Search And Destroy (6:30)
5 Surface Patterns (5:36)
6 Victim Of A Criminal (6:32)
7 Division Of Mind (5:47)
8 This Faith (6:12)
9 Plasma Springs (6:20)
10 Sex Offender (8:13)
Доп. информация: В 1994 году Bill leeb и Rhys Fulber подвергли звучание Front Line Assembly стилистической правке. Новая студийная работа "Millennium" делалась с явной опорой на гитарный саунд, конечно, в синтетическом и сэмплированном виде. Заглавный трек "Millennium" и сингл "This Faith" стали клубными хитами в Великобритании и Канаде. В то же время, более сложные по композиции песни и контрастные аранжировки, сочетавшие компьютерные звуки с жесткими гитарами, у ряда поклонников вызвали недоумение.
EAC extraction logfile from 8. October 2005, 8:11 for CD
Front Line Assembly / Millennium
Used drive : LITE-ON LTR-16101B Adapter: 0 ID: 0
Read mode : Secure with NO C2, accurate stream, disable cache
Read offset correction : 690
Overread into Lead-In and Lead-Out : No
Used output format : Internal WAV Routines
44.100 Hz; 16 Bit; Stereo
Other options :
Fill up missing offset samples with silence : Yes
Delete leading and trailing silent blocks : No
Native Win32 interface for Win NT & 2000
Track 1
Filename C:\_Fwankinstein\Front Line Assembly - Millennium (1994) [FLAC]\01 - Vigilante.wav
Pre-gap length 0:00:02.00
Peak level 100.0 %
Track quality 100.0 %
Test CRC 0A1FF1B1
Copy CRC 0A1FF1B1
Copy OK
Track 2
Filename C:\_Fwankinstein\Front Line Assembly - Millennium (1994) [FLAC]\02 - Millennium.wav
Peak level 100.0 %
Track quality 100.0 %
Test CRC 1DB81B3D
Copy CRC 1DB81B3D
Copy OK
Track 3
Filename C:\_Fwankinstein\Front Line Assembly - Millennium (1994) [FLAC]\03 - Liquid Separation.wav
Peak level 100.0 %
Track quality 100.0 %
Test CRC AAC2E994
Copy CRC AAC2E994
Copy OK
Track 4
Filename C:\_Fwankinstein\Front Line Assembly - Millennium (1994) [FLAC]\04 - Search and Destroy.wav
Peak level 100.0 %
Track quality 100.0 %
Test CRC 5F5E7469
Copy CRC 5F5E7469
Copy OK
Track 5
Filename C:\_Fwankinstein\Front Line Assembly - Millennium (1994) [FLAC]\05 - Surface Patterns.wav
Peak level 100.0 %
Track quality 99.9 %
Test CRC B50FEF80
Copy CRC B50FEF80
Copy OK
Track 6
Filename C:\_Fwankinstein\Front Line Assembly - Millennium (1994) [FLAC]\06 - Victim of a Criminal.wav
Peak level 100.0 %
Track quality 100.0 %
Test CRC DE902740
Copy CRC DE902740
Copy OK
Track 7
Filename C:\_Fwankinstein\Front Line Assembly - Millennium (1994) [FLAC]\07 - Division of Mind.wav
Peak level 100.0 %
Track quality 99.9 %
Test CRC EB582FBD
Copy CRC EB582FBD
Copy OK
Track 8
Filename C:\_Fwankinstein\Front Line Assembly - Millennium (1994) [FLAC]\08 - This Faith.wav
Peak level 100.0 %
Track quality 100.0 %
Test CRC 0E38B829
Copy CRC 0E38B829
Copy OK
Track 9
Filename C:\_Fwankinstein\Front Line Assembly - Millennium (1994) [FLAC]\09 - Plasma Springs.wav
Peak level 100.0 %
Track quality 100.0 %
Test CRC 96E1D568
Copy CRC 96E1D568
Copy OK
Track 10
Filename C:\_Fwankinstein\Front Line Assembly - Millennium (1994) [FLAC]\10 - Sex Offender.wav
Peak level 100.0 %
Track quality 100.0 %
Test CRC 79B7D6EB
Copy CRC 79B7D6EB
Copy OK
No errors occured
End of status report
Источник: Demonoid
Правила, инструкции, FAQ!!!
Торрент  Добавлен [26 июн 2020, 19:46] Скачать торрент Магнет ссылка
Скачать торрент
[ Размер 19.97 КБ / Просмотров 12 ]

Статус
Проверен 
 
Размер  478.74 МБ
Приватный: Нет (DHT включён)
.torrent скачан  0
 


     Отправить личное сообщение
   
Страница 1 из 1
Показать сообщения за:  Поле сортировки  
Начать новую тему Ответить на тему


Сейчас этот форум просматривают: нет зарегистрированных пользователей и гости: 0


Вы не можете начинать темы
Вы не можете отвечать на сообщения
Вы не можете редактировать свои сообщения
Вы не можете удалять свои сообщения
Вы не можете добавлять вложения

Перейти:  
cron