Начать новую тему Ответить на тему
Статистика раздачи
Размер: 343.78 МБ | Добавлен: 26 июн 2020, 17:37 | Скачали: 0
Сидеров: 0  [0 байт/сек]    Личеров: 0  [0 байт/сек]
Пред. тема | След. тема 

Автор
Сообщение

СообщениеДобавлено: 26 июн 2020, 17:37 

Ответить с цитатой 

Vampire Rodents / War Music
Жанр: Industrial, Electro, Experimental
Страна-производитель диска: Germany
Год издания: 1991
Издатель (лейбл): Dossier
Номер по каталогу: DCD 9025
Родина исполнителя: Canada
Аудиокодек: FLAC (*.flac)
Тип рипа: tracks+.cue
Битрейт аудио: lossless
Продолжительность: 57:04
Источник (релизер): soulseek
Наличие сканов в содержимом раздачи: нет
Треклист:
1. "Dumme Weisse Menschen" 4:08
2. "Fragrance of Christ" 2:20
3. "Extinction" 4:22
4. "The Ninth Floor" 1:53
5. "Mummified" 3:47
6. "The Tide Returns" 3:10
7. "Pla Man" 3:52
8. "Autocannibalism" 4:40
9. "Crack Babies" 2:18
10. "Momentous" 3:19
11. "Press of Flesh" 3:14
12. "Holiday" 4:30
13. "Friktion" 1:01
14. "Success" 4:00
15. "Abortion Clinic Deli" 2:15
16. "Sexrite" 4:26
17. "Meat" 3:42
Код:
Exact Audio Copy V1.0 beta 3 from 29. August 2011
EAC extraction logfile from 1. February 2012, 11:40
Vampire Rodents / War Music
Used drive  : HL-DT-STDVDRAM GA10F   Adapter: 0  ID: 1
Read mode               : Secure
Utilize accurate stream : Yes
Defeat audio cache      : Yes
Make use of C2 pointers : No
Read offset correction                      : 667
Overread into Lead-In and Lead-Out          : No
Fill up missing offset samples with silence : Yes
Delete leading and trailing silent blocks   : No
Null samples used in CRC calculations       : Yes
Used interface                              : Native Win32 interface for Win NT & 2000
Gap handling                                : Appended to previous track
Used output format              : User Defined Encoder
Selected bitrate                : 1024 kBit/s
Quality                         : High
Add ID3 tag                     : No
Command line compressor         : C:\Program Files (x86)\FLAC\flac.exe
Additional command line options : -8 -V -T "ARTIST=%artist%" -T "TITLE=%title%" -T "ALBUM=%albumtitle%" -T "DATE=%year%" -T "TRACKNUMBER=%tracknr%" -T "GENRE=%genre%" -T "PERFORMER=%albuminterpret%" -T "COMPOSER=%composer%" %haslyrics%--tag-from-file=LYRICS="%lyricsfile%"%haslyrics% -T "ALBUMARTIST=%albumartist%" -T "DISCNUMBER=%cdnumber%" -T "TOTALDISCS=%totalcds%" -T "TOTALTRACKS=%numtracks%" -T "COMMENT=%comment%" %source% -o %dest%
TOC of the extracted CD
     Track |   Start  |  Length  | Start sector | End sector
    ---------------------------------------------------------
        1  |  0:00.00 |  4:08.10 |         0    |    18609
        2  |  4:08.10 |  2:20.40 |     18610    |    29149
        3  |  6:28.50 |  4:22.57 |     29150    |    48856
        4  | 10:51.32 |  1:53.25 |     48857    |    57356
        5  | 12:44.57 |  3:47.53 |     57357    |    74434
        6  | 16:32.35 |  3:10.65 |     74435    |    88749
        7  | 19:43.25 |  3:52.25 |     88750    |   106174
        8  | 23:35.50 |  4:40.32 |    106175    |   127206
        9  | 28:16.07 |  2:18.08 |    127207    |   137564
       10  | 30:34.15 |  3:19.15 |    137565    |   152504
       11  | 33:53.30 |  3:14.02 |    152505    |   167056
       12  | 37:07.32 |  4:30.20 |    167057    |   187326
       13  | 41:37.52 |  1:01.03 |    187327    |   191904
       14  | 42:38.55 |  4:00.42 |    191905    |   209946
       15  | 46:39.22 |  2:15.03 |    209947    |   220074
       16  | 48:54.25 |  4:26.67 |    220075    |   240091
       17  | 53:21.17 |  3:42.33 |    240092    |   256774
Track  1
     Filename C:\what.cd\Vampire Rodents\Vampire Rodents - War Music (flac)\01 Dumme Weisse Menschen.wav
     Pre-gap length  0:00:02.00
     Peak level 95.5 %
     Extraction speed 2.9 X
     Track quality 100.0 %
     Test CRC 53DD3016
     Copy CRC 53DD3016
     Accurately ripped (confidence 2)  [2D26B449]  (AR v1)
     Copy OK
Track  2
     Filename C:\what.cd\Vampire Rodents\Vampire Rodents - War Music (flac)\02 Fragrance of Christ.wav
     Pre-gap length  0:00:02.00
     Peak level 82.5 %
     Extraction speed 2.9 X
     Track quality 100.0 %
     Test CRC 8239B260
     Copy CRC 8239B260
     Accurately ripped (confidence 2)  [5A226AB7]  (AR v1)
     Copy OK
Track  3
     Filename C:\what.cd\Vampire Rodents\Vampire Rodents - War Music (flac)\03 Extinction.wav
     Pre-gap length  0:00:02.00
     Peak level 89.9 %
     Extraction speed 3.4 X
     Track quality 100.0 %
     Test CRC 138F68A3
     Copy CRC 138F68A3
     Accurately ripped (confidence 2)  [33E8FB78]  (AR v1)
     Copy OK
Track  4
     Filename C:\what.cd\Vampire Rodents\Vampire Rodents - War Music (flac)\04 The Ninth Floor.wav
     Pre-gap length  0:00:02.00
     Peak level 96.8 %
     Extraction speed 3.1 X
     Track quality 100.0 %
     Test CRC CD1497BF
     Copy CRC CD1497BF
     Accurately ripped (confidence 2)  [E2A1E07B]  (AR v1)
     Copy OK
Track  5
     Filename C:\what.cd\Vampire Rodents\Vampire Rodents - War Music (flac)\05 Mummified.wav
     Pre-gap length  0:00:02.00
     Peak level 95.5 %
     Extraction speed 3.1 X
     Track quality 99.9 %
     Test CRC DD39CF95
     Copy CRC DD39CF95
     Track not present in AccurateRip database
     Copy OK
Track  6
     Filename C:\what.cd\Vampire Rodents\Vampire Rodents - War Music (flac)\06 The Tide Returns.wav
     Pre-gap length  0:00:02.00
     Peak level 93.3 %
     Extraction speed 3.1 X
     Track quality 99.9 %
     Test CRC B5F49EE0
     Copy CRC B5F49EE0
     Track not present in AccurateRip database
     Copy OK
Track  7
     Filename C:\what.cd\Vampire Rodents\Vampire Rodents - War Music (flac)\07 Pla Man.wav
     Pre-gap length  0:00:02.00
     Peak level 91.2 %
     Extraction speed 4.1 X
     Track quality 100.0 %
     Test CRC 5146BB50
     Copy CRC 5146BB50
     Accurately ripped (confidence 2)  [9DFA8F34]  (AR v1)
     Copy OK
Track  8
     Filename C:\what.cd\Vampire Rodents\Vampire Rodents - War Music (flac)\08 Autocannibalism.wav
     Pre-gap length  0:00:02.00
     Peak level 79.2 %
     Extraction speed 4.4 X
     Track quality 100.0 %
     Test CRC DB38BA83
     Copy CRC DB38BA83
     Accurately ripped (confidence 2)  [5D8D34A8]  (AR v1)
     Copy OK
Track  9
     Filename C:\what.cd\Vampire Rodents\Vampire Rodents - War Music (flac)\09 Crack Babies.wav
     Pre-gap length  0:00:02.00
     Peak level 93.2 %
     Extraction speed 3.2 X
     Track quality 99.9 %
     Test CRC 29220AEF
     Copy CRC 29220AEF
     Accurately ripped (confidence 2)  [B9F32BDE]  (AR v1)
     Copy OK
Track 10
     Filename C:\what.cd\Vampire Rodents\Vampire Rodents - War Music (flac)\10 Momentous.wav
     Pre-gap length  0:00:02.00
     Peak level 100.0 %
     Extraction speed 3.7 X
     Track quality 99.9 %
     Test CRC 7857AF01
     Copy CRC 7857AF01
     Accurately ripped (confidence 2)  [D1355787]  (AR v1)
     Copy OK
Track 11
     Filename C:\what.cd\Vampire Rodents\Vampire Rodents - War Music (flac)\11 Press of Flesh.wav
     Pre-gap length  0:00:02.00
     Peak level 92.2 %
     Extraction speed 4.7 X
     Track quality 100.0 %
     Test CRC 1DFC81BF
     Copy CRC 1DFC81BF
     Accurately ripped (confidence 2)  [86E0389E]  (AR v1)
     Copy OK
Track 12
     Filename C:\what.cd\Vampire Rodents\Vampire Rodents - War Music (flac)\12 Holiday.wav
     Pre-gap length  0:00:02.00
     Peak level 88.5 %
     Extraction speed 4.3 X
     Track quality 99.9 %
     Test CRC 31722368
     Copy CRC 31722368
     Accurately ripped (confidence 2)  [79A4CEFB]  (AR v1)
     Copy OK
Track 13
     Filename C:\what.cd\Vampire Rodents\Vampire Rodents - War Music (flac)\13 Friktion.wav
     Pre-gap length  0:00:02.00
     Peak level 64.3 %
     Extraction speed 2.3 X
     Track quality 99.8 %
     Test CRC 210971C2
     Copy CRC 210971C2
     Accurately ripped (confidence 2)  [33468867]  (AR v1)
     Copy OK
Track 14
     Filename C:\what.cd\Vampire Rodents\Vampire Rodents - War Music (flac)\14 Success.wav
     Pre-gap length  0:00:02.00
     Peak level 97.7 %
     Extraction speed 5.1 X
     Track quality 100.0 %
     Test CRC 07B5E8B3
     Copy CRC 07B5E8B3
     Accurately ripped (confidence 2)  [0BFBFA9A]  (AR v1)
     Copy OK
Track 15
     Filename C:\what.cd\Vampire Rodents\Vampire Rodents - War Music (flac)\15 Abortion Clinic Deli.wav
     Pre-gap length  0:00:02.00
     Peak level 100.0 %
     Extraction speed 4.7 X
     Track quality 100.0 %
     Test CRC FB40A7C1
     Copy CRC FB40A7C1
     Track not present in AccurateRip database
     Copy OK
Track 16
     Filename C:\what.cd\Vampire Rodents\Vampire Rodents - War Music (flac)\16 Sexrite.wav
     Pre-gap length  0:00:02.00
     Peak level 91.1 %
     Extraction speed 4.7 X
     Track quality 99.9 %
     Test CRC DA07D9FD
     Copy CRC DA07D9FD
     Track not present in AccurateRip database
     Copy OK
Track 17
     Filename C:\what.cd\Vampire Rodents\Vampire Rodents - War Music (flac)\17 Meat.wav
     Pre-gap length  0:00:02.00
     Peak level 91.2 %
     Extraction speed 4.7 X
     Track quality 99.9 %
     Test CRC 998A7BED
     Copy CRC 998A7BED
     Track not present in AccurateRip database
     Copy OK
12 track(s) accurately ripped
 5 track(s) not present in the AccurateRip database
Some tracks could not be verified as accurate
No errors occurred
End of status report
---- CUETools DB Plugin V2.1.3
[CTDB TOCID: 8liPjqC_cIvHwJ2C244kAk_CFIs-] disk not present in database, Submit result: 8liPjqC_cIvHwJ2C244kAk_CFIs- has been uploaded
==== Log checksum 01AF7C37789DFD14FCDA4B82C505599EC70B1D217BDEA9FF55D1D1F63230962E ====
Код:
REM GENRE Industrial
REM DATE 1991
REM DISCID F70D5F11
REM COMMENT "ExactAudioCopy v1.0b3"
CATALOG 0000000000000
PERFORMER "Vampire Rodents"
TITLE "War Music"
FILE "01 Dumme Weisse Menschen.wav" WAVE
  TRACK 01 AUDIO
    TITLE "Dumme Weisse Menschen"
    PERFORMER "Vampire Rodents"
    INDEX 01 00:00:00
  TRACK 02 AUDIO
    TITLE "Fragrance of Christ"
    PERFORMER "Vampire Rodents"
    INDEX 00 04:06:10
FILE "02 Fragrance of Christ.wav" WAVE
    INDEX 01 00:00:00
  TRACK 03 AUDIO
    TITLE "Extinction"
    PERFORMER "Vampire Rodents"
    INDEX 00 02:18:40
FILE "03 Extinction.wav" WAVE
    INDEX 01 00:00:00
  TRACK 04 AUDIO
    TITLE "The Ninth Floor"
    PERFORMER "Vampire Rodents"
    INDEX 00 04:20:57
FILE "04 The Ninth Floor.wav" WAVE
    INDEX 01 00:00:00
  TRACK 05 AUDIO
    TITLE "Mummified"
    PERFORMER "Vampire Rodents"
    INDEX 00 01:51:25
FILE "05 Mummified.wav" WAVE
    INDEX 01 00:00:00
  TRACK 06 AUDIO
    TITLE "The Tide Returns"
    PERFORMER "Vampire Rodents"
    INDEX 00 03:45:53
FILE "06 The Tide Returns.wav" WAVE
    INDEX 01 00:00:00
  TRACK 07 AUDIO
    TITLE "Pla Man"
    PERFORMER "Vampire Rodents"
    INDEX 00 03:08:65
FILE "07 Pla Man.wav" WAVE
    INDEX 01 00:00:00
  TRACK 08 AUDIO
    TITLE "Autocannibalism"
    PERFORMER "Vampire Rodents"
    INDEX 00 03:50:25
FILE "08 Autocannibalism.wav" WAVE
    INDEX 01 00:00:00
  TRACK 09 AUDIO
    TITLE "Crack Babies"
    PERFORMER "Vampire Rodents"
    INDEX 00 04:38:32
FILE "09 Crack Babies.wav" WAVE
    INDEX 01 00:00:00
  TRACK 10 AUDIO
    TITLE "Momentous"
    PERFORMER "Vampire Rodents"
    INDEX 00 02:16:08
FILE "10 Momentous.wav" WAVE
    INDEX 01 00:00:00
  TRACK 11 AUDIO
    TITLE "Press of Flesh"
    PERFORMER "Vampire Rodents"
    INDEX 00 03:17:15
FILE "11 Press of Flesh.wav" WAVE
    INDEX 01 00:00:00
  TRACK 12 AUDIO
    TITLE "Holiday"
    PERFORMER "Vampire Rodents"
    INDEX 00 03:12:02
FILE "12 Holiday.wav" WAVE
    INDEX 01 00:00:00
  TRACK 13 AUDIO
    TITLE "Friktion"
    PERFORMER "Vampire Rodents"
    INDEX 00 04:28:20
FILE "13 Friktion.wav" WAVE
    INDEX 01 00:00:00
  TRACK 14 AUDIO
    TITLE "Success"
    PERFORMER "Vampire Rodents"
    INDEX 00 00:59:03
FILE "14 Success.wav" WAVE
    INDEX 01 00:00:00
  TRACK 15 AUDIO
    TITLE "Abortion Clinic Deli"
    PERFORMER "Vampire Rodents"
    INDEX 00 03:58:42
FILE "15 Abortion Clinic Deli.wav" WAVE
    INDEX 01 00:00:00
  TRACK 16 AUDIO
    TITLE "Sexrite"
    PERFORMER "Vampire Rodents"
    INDEX 00 02:13:03
FILE "16 Sexrite.wav" WAVE
    INDEX 01 00:00:00
  TRACK 17 AUDIO
    TITLE "Meat"
    PERFORMER "Vampire Rodents"
    INDEX 00 04:24:67
FILE "17 Meat.wav" WAVE
    INDEX 01 00:00:00
Код:
-----------------------
DON'T MODIFY THIS FILE
-----------------------
PERFORMER: auCDtect Task Manager, ver. 1.5.1RC4 build 1.5.1.5
Copyright (c) 2008-2010 y-soft. All rights reserved
[url=http://y-soft.org]http://y-soft.org[/url]
ANALYZER: auCDtect: CD records authenticity detector, version 0.8.2
Copyright (c) 2004 Oleg Berngardt. All rights reserved.
Copyright (c) 2004 Alexander Djourik. All rights reserved.
FILE: 01 dumme weisse menschen.flac
  Size: 25712089 Hash: 4B49962606844A2B31B5AFFB0D9766A1 Accuracy: -m0
  Conclusion: CDDA 100%
  Signature: 57B5207BDD3A2DBC60AAD823322D17E93EC8775C
Vampire Rodents was the name of an industrial music and experimental rock band formed in Phoenix, Arizona, although its core members originally came from Canada. The band was formed by singer, guitarist and composer Daniel Vahnke (aka Anton Rathausen) and keyboardest Victor Wulf. Andrea Akastia (violin, cello) joined after the re-release of War Music in 1991. The band was well known for their use of guest vocalists on many of their songs. Although almost all of the instrumentalists credited, such as Jing Laoshu and Consuelo Buenviento, were fake. Daniel Vahnke was primarily influenced by classical and Avant-garde music, whereas Wulf was more focused on Ambient music, and both styles contributed to the mood of the band.
Across their five album career, they appeared on four different record labels, including Dossier, Vampire Rodents Productions (their own label), Re-Constriction Records and finally on Fifth Column.
As well as Vampire Rodents, Vahnke also had a side project called Ether Bunny, and Wulf had a solo effort called Dilate, which released two albums on Cleopatra Records. The Rodents also collaborated with Babyland to create Recliner, which released a few songs direct onto compilation albums, and later onto full VR albums.
While the band was mainly active during 1988-1996, Vahnke has expressed his desire on his Myspace page to restart the group, however there has been nothing new produced.
In January 2008, Daniel released on his Myspace page raw material from the proposed side project Pillow which was to be done in collaboration with 16volt.
War Music was Vampire Rodents' first album, which was released in 1991 the Dossier record label. It introduced the sound of the band, and several of the techniques they would use in their later works, such as sound clips and songs in different languages. Daniel has described War Music as being "a little primitive, but very funny"
The record was completed in January 1990 and released on cassette for a limited time under the label V.R. Productions. The album was then picked up by Dossier in 1991 and re-released on CD world-wide. It is currently out of print on both labels.
Music critic Piero Scaruffi gave the album 6.5 out of 10, claiming it "mechanically repeats the same idea" and that the band's "execution is still amateur."Robert Baird of the Phoenix New Times was more enthusiastic about it, saying that although "the band's darkly humorous, apocalyptic visions are set to a cyber-aggressive post-industrialist beat" that there is "a point to all the sickness and gore."
Andrea Akastia, Daniel Vahnke, Victor Wulf
Правила, инструкции, FAQ!!!
Торрент  Добавлен [26 июн 2020, 17:37] Скачать торрент Магнет ссылка
Скачать торрент
[ Размер 15.15 КБ / Просмотров 8 ]

Статус
Проверен 
 
Размер  343.78 МБ
Приватный: Нет (DHT включён)
.torrent скачан  0
 


     Отправить личное сообщение
   
Страница 1 из 1
Показать сообщения за:  Поле сортировки  
Начать новую тему Ответить на тему


Сейчас этот форум просматривают: нет зарегистрированных пользователей и гости: 0


Вы не можете начинать темы
Вы не можете отвечать на сообщения
Вы не можете редактировать свои сообщения
Вы не можете удалять свои сообщения
Вы не можете добавлять вложения

Перейти:  
cron