Начать новую тему Ответить на тему
Статистика раздачи
Размер: 432.33 МБ | Добавлен: 26 июн 2020, 17:57 | Скачали: 0
Сидеров: 0  [0 байт/сек]    Личеров: 0  [0 байт/сек]
Пред. тема | След. тема 

Автор
Сообщение

СообщениеДобавлено: 26 июн 2020, 17:57 

Ответить с цитатой 

Compulsive Shopping Disorder - In The Cube
Жанр: Industrial, Electro, Experimental
Год выпуска диска: 2008
Производитель диска: Poland [Rage In Eden]
Аудио кодек: FLAC
Тип рипа: image+.cue
Битрейт аудио: lossless
Продолжительность: 52'19''
Трэклист:
1. Dreams (8:15)
2. In Confidence (7:01)
3. Trash (10:38)
4. Mind-Soul (6:59)
5. Attraction Of Pain (5:46)
6. Fall (7:17)
7. In The Cube (6:18)
Доп. информация: Ох... что-то поляки меня всё больше пугают своим затянувшимся пристрастием к электронике. Где "трогательные" военные марши, апокалиптические гимны? Увы, ничего из вышеперечисленного на этом релизе нет. Да рецензенты рассыпаются в комплиментах к этому EBM / Electro альбому, мол польский лейбл держит марку в разных музыкальных стилях и т.д. но... одна надежда на грядущий альбом Across The Rubicon.
3-х панельный дигипак.
Код:
Exact Audio Copy V0.99 prebeta 5 from 4. May 2009
Отчёт EAC об извлечении, выполненном 16. февраля 2010, 10:55
Compulsive Shopping Disorder / In The Cube
Дисковод: PIONEER DVD-RW  DVR-115D   Adapter: 0  ID: 0
Режим чтения                 : Достоверность
Использование точного потока : Да
Отключение кэша аудио        : Да
Использование указателей C2  : Нет
Коррекция смещения при чтении                     : 48
Способность читать области Lead-in и Lead-out     : Нет
Заполнение пропущенных сэмплов тишиной            : Да
Удаление блоков с тишиной в начале и конце        : Нет
При вычислениях CRC использовались нулевые сэмплы : Да
Интерфейс                                         : Встроенный Win32-интерфейс для Win NT/2000
Выходной формат          : Пользовательский кодировщик
Выбранный битрейт        : 896 kBit/s
Качество                 : Высокий
Добавление ID3-тэга      : Нет
Утилита сжатия           : C:\Program Files\Exact Audio Copy\Flac\flac.exe
Дополнительные параметры : -8 -A tukey(0.25) -A gauss(0.1875) -b 4096 -V -T "artist=%a" -T "title=%t" -T "album=%g" -T "date=%y" -T "tracknumber=%n" -T "genre=%m" %s --sector-align
TOC извлечённого CD
     Трек |   Старт  | Длительность | Начальный сектор | Конечный сектор
    ---------------------------------------------------------------------
       1  |  0:00.00 |    8:16.21   |           0      |      37220
       2  |  8:16.21 |    7:00.51   |       37221      |      68771
       3  | 15:16.72 |   10:38.59   |       68772      |     116680
       4  | 25:55.56 |    7:00.08   |      116681      |     148188
       5  | 32:55.64 |    5:46.38   |      148189      |     174176
       6  | 38:42.27 |    7:17.45   |      174177      |     206996
       7  | 45:59.72 |    6:19.28   |      206997      |     235449
Характеристики диапазона извлечения и сообщения об ошибках
Выбранный диапазон
     Имя файла D:\TORRENT UPLOAD\Compulsive Shopping Disorder - 2008 - In The Cube\Compulsive Shopping Disorder - In The Cube.wav
     Пиковый уровень 100.0 %
     Качество диапазона 99.9 %
     CRC теста 5E66C94A
     CRC копии 5E66C94A
     Копирование... OK
Ошибок не произошло
AccurateRip: сводка
Трек  1  точное извлечение (доверие 2)  [9F1C1D91]
Трек  2  точное извлечение (доверие 2)  [3236CC01]
Трек  3  точное извлечение (доверие 2)  [CC26CDD5]
Трек  4  точное извлечение (доверие 2)  [A99970E7]
Трек  5  точное извлечение (доверие 2)  [2AC11601]
Трек  6  точное извлечение (доверие 2)  [8DC40B9E]
Трек  7  точное извлечение (доверие 2)  [DE4720D3]
Все треки извлечены точно
Конец отчёта
Код:
AUDIOCHECKER v1.2 - by Dester - opdester@freemail.hu
~~~~~~~~~~~~~~~~~
1 -===- D:\TORRENT UPLOAD\Compulsive Shopping Disorder - 2008 - In The Cube\Compulsive Shopping Disorder - In The Cube.flac
  Extracted successfully
  Conclusion: This track looks like CDDA with probability 100%
Сканы оформления прилагаются
Правила, инструкции, FAQ!!!
Торрент  Добавлен [26 июн 2020, 17:57] Скачать торрент Магнет ссылка
Скачать торрент
[ Размер 35.18 КБ / Просмотров 9 ]

Статус
Проверен 
 
Размер  432.33 МБ
Приватный: Нет (DHT включён)
.torrent скачан  0
 


     Отправить личное сообщение
   
Страница 1 из 1
Показать сообщения за:  Поле сортировки  
Начать новую тему Ответить на тему


Сейчас этот форум просматривают: нет зарегистрированных пользователей и гости: 0


Вы не можете начинать темы
Вы не можете отвечать на сообщения
Вы не можете редактировать свои сообщения
Вы не можете удалять свои сообщения
Вы не можете добавлять вложения

Перейти:  
cron