Начать новую тему Ответить на тему
Статистика раздачи
Размер: 450.69 МБ | Добавлен: 26 июн 2020, 17:03 | Скачали: 0
Сидеров: 0  [0 байт/сек]    Личеров: 0  [0 байт/сек]
Пред. тема | След. тема 

Автор
Сообщение

СообщениеДобавлено: 26 июн 2020, 17:03 

Ответить с цитатой 

Fractured - Contami-Nation

Жанр: Industrial, Electro, EBM
Страна-производитель диска: Canada
Год издания диска: 2004
Издатель (лейбл): Not On Label
Номер по каталогу: none
Страна: Canada
Аудио кодек: FLAC (*.flac)
Тип рипа: tracks+.cue
Битрейт аудио: lossless
Продолжительность: 1:01:44.200
Источник (релизер): waffles.fm
Наличие сканов в содержимом раздачи: нет
Треклист:
01 Love is Cancer
02 She
03 Killing Time Inc.
04 Breaking Glass
05 Sins
06 Spread the Disease
07 Cry Blood
08 Machine Men
09 All for You
10 5 Reasons
11 Severed Veins
12 Spread the Disease (Immune Mix by Re_agent)
Лучшая ваша благодарность за раздачу - отзывы об альбоме!
Код:
Exact Audio Copy V1.0 beta 1 from 15. November 2010
EAC extraction logfile from 6. April 2011, 6:02
Fractured / Contami-nation
Used drive  : LITE-ON DVDRW LH-20A1H   Adapter: 0  ID: 0
Read mode               : Secure
Utilize accurate stream : Yes
Defeat audio cache      : Yes
Make use of C2 pointers : No
Read offset correction                      : 6
Overread into Lead-In and Lead-Out          : No
Fill up missing offset samples with silence : Yes
Delete leading and trailing silent blocks   : No
Null samples used in CRC calculations       : Yes
Used interface                              : Native Win32 interface for Win NT & 2000
Gap handling                                : Appended to previous track
Used output format              : User Defined Encoder
Selected bitrate                : 1024 kBit/s
Quality                         : High
Add ID3 tag                     : No
Command line compressor         : C:\Program Files\Exact Audio Copy\Flac\flac.exe
Additional command line options : -V -8 -T "artist=%a" -T "title=%t" -T "album=%g" -T "date=%y" -T "tracknumber=%n" -T "genre=%m" %s
TOC of the extracted CD
     Track |   Start  |  Length  | Start sector | End sector
    ---------------------------------------------------------
        1  |  0:00.00 |  4:48.47 |         0    |    21646
        2  |  4:48.47 |  4:22.08 |     21647    |    41304
        3  |  9:10.55 |  4:23.53 |     41305    |    61082
        4  | 13:34.33 |  6:05.60 |     61083    |    88517
        5  | 19:40.18 |  5:19.45 |     88518    |   112487
        6  | 24:59.63 |  5:47.26 |    112488    |   138538
        7  | 30:47.14 |  6:41.08 |    138539    |   168621
        8  | 37:28.22 |  4:40.72 |    168622    |   189693
        9  | 42:09.19 |  4:16.09 |    189694    |   208902
       10  | 46:25.28 |  5:38.08 |    208903    |   234260
       11  | 52:03.36 |  4:46.08 |    234261    |   255718
       12  | 56:49.44 |  4:54.46 |    255719    |   277814
Track  1
     Filename D:\Music\New\Rips\FLAC\Fractured - Contami-nation (2004) [FLAC]\Fractured - 01 - Love Is Cancer.wav
     Pre-gap length  0:00:02.00
     Peak level 100.0 %
     Extraction speed 2.1 X
     Track quality 100.0 %
     Test CRC 1DD30FB3
     Copy CRC 1DD30FB3
     Track not present in AccurateRip database
     Copy OK
Track  2
     Filename D:\Music\New\Rips\FLAC\Fractured - Contami-nation (2004) [FLAC]\Fractured - 02 - She.wav
     Pre-gap length  0:00:02.00
     Peak level 100.0 %
     Extraction speed 2.3 X
     Track quality 100.0 %
     Test CRC 09303B91
     Copy CRC 09303B91
     Track not present in AccurateRip database
     Copy OK
Track  3
     Filename D:\Music\New\Rips\FLAC\Fractured - Contami-nation (2004) [FLAC]\Fractured - 03 - Killing Time Inc..wav
     Pre-gap length  0:00:02.00
     Peak level 100.0 %
     Extraction speed 2.5 X
     Track quality 100.0 %
     Test CRC A2C3F7D7
     Copy CRC A2C3F7D7
     Track not present in AccurateRip database
     Copy OK
Track  4
     Filename D:\Music\New\Rips\FLAC\Fractured - Contami-nation (2004) [FLAC]\Fractured - 04 - Breaking Glass.wav
     Pre-gap length  0:00:02.00
     Peak level 100.0 %
     Extraction speed 2.8 X
     Track quality 100.0 %
     Test CRC 99A6E4CC
     Copy CRC 99A6E4CC
     Track not present in AccurateRip database
     Copy OK
Track  5
     Filename D:\Music\New\Rips\FLAC\Fractured - Contami-nation (2004) [FLAC]\Fractured - 05 - Sins.wav
     Pre-gap length  0:00:02.00
     Peak level 100.0 %
     Extraction speed 3.0 X
     Track quality 100.0 %
     Test CRC A4DFDDC0
     Copy CRC A4DFDDC0
     Track not present in AccurateRip database
     Copy OK
Track  6
     Filename D:\Music\New\Rips\FLAC\Fractured - Contami-nation (2004) [FLAC]\Fractured - 06 - Spread The Disease.wav
     Pre-gap length  0:00:02.00
     Peak level 100.0 %
     Extraction speed 2.7 X
     Track quality 99.9 %
     Test CRC D4219636
     Copy CRC D4219636
     Track not present in AccurateRip database
     Copy OK
Track  7
     Filename D:\Music\New\Rips\FLAC\Fractured - Contami-nation (2004) [FLAC]\Fractured - 07 - Cry Blood.wav
     Pre-gap length  0:00:02.00
     Peak level 100.0 %
     Extraction speed 2.9 X
     Track quality 99.9 %
     Test CRC 6230DD5F
     Copy CRC 6230DD5F
     Track not present in AccurateRip database
     Copy OK
Track  8
     Filename D:\Music\New\Rips\FLAC\Fractured - Contami-nation (2004) [FLAC]\Fractured - 08 - Machine Men.wav
     Pre-gap length  0:00:02.00
     Peak level 100.0 %
     Extraction speed 3.5 X
     Track quality 100.0 %
     Test CRC A246670F
     Copy CRC A246670F
     Track not present in AccurateRip database
     Copy OK
Track  9
     Filename D:\Music\New\Rips\FLAC\Fractured - Contami-nation (2004) [FLAC]\Fractured - 09 - All For You.wav
     Pre-gap length  0:00:02.00
     Peak level 100.0 %
     Extraction speed 3.6 X
     Track quality 100.0 %
     Test CRC 268D159E
     Copy CRC 268D159E
     Track not present in AccurateRip database
     Copy OK
Track 10
     Filename D:\Music\New\Rips\FLAC\Fractured - Contami-nation (2004) [FLAC]\Fractured - 10 - 5 Reasons.wav
     Pre-gap length  0:00:02.00
     Peak level 100.0 %
     Extraction speed 3.9 X
     Track quality 100.0 %
     Test CRC 4303209B
     Copy CRC 4303209B
     Track not present in AccurateRip database
     Copy OK
Track 11
     Filename D:\Music\New\Rips\FLAC\Fractured - Contami-nation (2004) [FLAC]\Fractured - 11 - Severed Veins.wav
     Pre-gap length  0:00:02.00
     Peak level 100.0 %
     Extraction speed 3.9 X
     Track quality 100.0 %
     Test CRC 2B542BD8
     Copy CRC 2B542BD8
     Track not present in AccurateRip database
     Copy OK
Track 12
     Filename D:\Music\New\Rips\FLAC\Fractured - Contami-nation (2004) [FLAC]\Fractured - 12 - Spread The Disease (Immune Mix by Re!Agent).wav
     Pre-gap length  0:00:02.00
     Peak level 100.0 %
     Extraction speed 4.1 X
     Track quality 100.0 %
     Test CRC 4F69A1B0
     Copy CRC 4F69A1B0
     Track not present in AccurateRip database
     Copy OK
None of the tracks are present in the AccurateRip database
No errors occurred
End of status report
==== Log checksum 1D92E8EAF6A9018104BDACB745D355858A8944E77947B81C28FFA1367D2A0B75 ====
Код:
REM GENRE Industrial
REM DATE 2004
REM DISCID 910E780C
REM COMMENT "ExactAudioCopy v1.0b1"
FILE "01 - Love Is Cancer.flac" WAVE
  TRACK 01 AUDIO
    INDEX 01 00:00:00
  TRACK 02 AUDIO
    INDEX 00 04:46:47
FILE "02 - She.flac" WAVE
    INDEX 01 00:00:00
  TRACK 03 AUDIO
    INDEX 00 04:20:08
FILE "03 - Killing Time Inc..flac" WAVE
    INDEX 01 00:00:00
  TRACK 04 AUDIO
    INDEX 00 04:21:53
FILE "04 - Breaking Glass.flac" WAVE
    INDEX 01 00:00:00
  TRACK 05 AUDIO
    INDEX 00 06:03:60
FILE "05 - Sins.flac" WAVE
    INDEX 01 00:00:00
  TRACK 06 AUDIO
    INDEX 00 05:17:45
FILE "06 - Spread The Disease.flac" WAVE
    INDEX 01 00:00:00
  TRACK 07 AUDIO
    INDEX 00 05:45:26
FILE "07 - Cry Blood.flac" WAVE
    INDEX 01 00:00:00
  TRACK 08 AUDIO
    INDEX 00 06:39:08
FILE "08 - Machine Men.flac" WAVE
    INDEX 01 00:00:00
  TRACK 09 AUDIO
    INDEX 00 04:38:72
FILE "09 - All For You.flac" WAVE
    INDEX 01 00:00:00
  TRACK 10 AUDIO
    INDEX 00 04:14:09
FILE "10 - 5 Reasons.flac" WAVE
    INDEX 01 00:00:00
  TRACK 11 AUDIO
    INDEX 00 05:36:08
FILE "11 - Severed Veins.flac" WAVE
    INDEX 01 00:00:00
  TRACK 12 AUDIO
    INDEX 00 04:44:08
FILE "12 - Spread The Disease (Immune Mix by Re!Agent).flac" WAVE
    INDEX 01 00:00:00

Правила, инструкции, FAQ!!!
Торрент  Добавлен [26 июн 2020, 17:03] Скачать торрент Магнет ссылка
Скачать торрент
[ Размер 18.87 КБ / Просмотров 3 ]

Статус
Проверен 
 
Размер  450.69 МБ
Приватный: Нет (DHT включён)
.torrent скачан  0
 


     Отправить личное сообщение
   
Страница 1 из 1
Показать сообщения за:  Поле сортировки  
Начать новую тему Ответить на тему


Сейчас этот форум просматривают: нет зарегистрированных пользователей и гости: 0


Вы не можете начинать темы
Вы не можете отвечать на сообщения
Вы не можете редактировать свои сообщения
Вы не можете удалять свои сообщения
Вы не можете добавлять вложения

Перейти:  
cron