Начать новую тему Ответить на тему
Статистика раздачи
Размер: 507.08 МБ | Добавлен: 26 июн 2020, 20:27 | Скачали: 0
Сидеров: 0  [0 байт/сек]    Личеров: 0  [0 байт/сек]
Пред. тема | След. тема 

Автор
Сообщение

СообщениеДобавлено: 26 июн 2020, 20:27 

Ответить с цитатой 

Various Artists - Enchantments

Жанр: Industrial, Electro, EBM
Страна-производитель диска: US
Год издания диска: 1995
Издатель (лейбл): Cleopatra
Номер по каталогу: CLP 9520-2
Страна: US
Аудиокодек: FLAC (*.flac)
Тип рипа: tracks+.cue
Битрейт аудио: lossless
Продолжительность: 01:17:38
Источник (релизер): Скачано с what.cd
Наличие сканов в содержимом раздачи: нет
Треклист:
1 Digital Poodle – Head Of Levin (Remix) [5:31]
2 Noise Unit – Kick To Kill [4:06]
3 Electric Hellfire Club, The – Night Of The Buck Knives (Altamont Mix) [8:26]
4 Die Krupps – Metal Machine Music (Degeneration Mix) [5:13]
5 Penal Colony – Blue Nile (Free Me Mix) [5:41]
6 Laibach – Die Liebe [4:26]
7 Spahn Ranch – Breath And Taxes (Deductable Mix) [4:00]
8 T.H.D – Cyberchrist [4:42]
9 Noise Box – Monkey Ass [2:24]
10 X-Marks The Pedwalk – Abattoir (Razorblade Mix) [5:53]
11 Kill Switch... Klick – Decanonized [4:41]
12 Lights Of Euphoria – Subjection (Violent Mix) [4:58]
13 Blok 57 – Burn Baby Burn [3:40]
14 Psychopomps – Hate [4:00]
15 Frontline Assembly – Immobilized [4:09]
16 Leæther Strip – Torture (A Suicide Note) [5:48]
Код:
Exact Audio Copy V1.0 beta 2 from 29. April 2011
EAC extraction logfile from 31. May 2011, 5:09
Various / Enchantments
Used drive  : ATAPI   DVD A  DH20A4P   Adapter: 3  ID: 0
Read mode               : Secure
Utilize accurate stream : Yes
Defeat audio cache      : Yes
Make use of C2 pointers : No
Read offset correction                      : 6
Overread into Lead-In and Lead-Out          : No
Fill up missing offset samples with silence : Yes
Delete leading and trailing silent blocks   : No
Null samples used in CRC calculations       : Yes
Used interface                              : Native Win32 interface for Win NT & 2000
Gap handling                                : Appended to previous track
Used output format              : User Defined Encoder
Selected bitrate                : 1024 kBit/s
Quality                         : High
Add ID3 tag                     : No
Command line compressor         : C:\Program Files\Exact Audio Copy\FLAC\FLAC.EXE
Additional command line options : -8 -V -T "ARTIST=%artist%" -T "TITLE=%title%" -T "ALBUM=%albumtitle%" -T "DATE=%year%" -T "TRACKNUMBER=%tracknr%" -T "GENRE=%genre%" -T "PERFORMER=%albuminterpret%" -T "COMPOSER=%composer%" %haslyrics%--tag-from-file=LYRICS
TOC of the extracted CD
     Track |   Start  |  Length  | Start sector | End sector
    ---------------------------------------------------------
        1  |  0:00.00 |  5:31.17 |         0    |    24841
        2  |  5:31.17 |  4:06.55 |     24842    |    43346
        3  |  9:37.72 |  8:26.30 |     43347    |    81326
        4  | 18:04.27 |  5:13.45 |     81327    |   104846
        5  | 23:17.72 |  5:41.40 |    104847    |   130461
        6  | 28:59.37 |  4:26.13 |    130462    |   150424
        7  | 33:25.50 |  4:00.17 |    150425    |   168441
        8  | 37:25.67 |  4:42.28 |    168442    |   189619
        9  | 42:08.20 |  2:24.50 |    189620    |   200469
       10  | 44:32.70 |  5:53.07 |    200470    |   226951
       11  | 50:26.02 |  4:41.55 |    226952    |   248081
       12  | 55:07.57 |  4:58.53 |    248082    |   270484
       13  | 60:06.35 |  3:40.12 |    270485    |   286996
       14  | 63:46.47 |  4:00.28 |    286997    |   305024
       15  | 67:47.00 |  4:09.37 |    305025    |   323736
       16  | 71:56.37 |  5:48.55 |    323737    |   349891
Track  1
     Filename C:\Program Files\Exact Audio Copy\rips\Various Artists - Enchantments (1995) [FLAC]\01 - Digital Poodle - Head of Levin (Remix).wav
     Pre-gap length  0:00:02.00
     Peak level 72.9 %
     Extraction speed 2.2 X
     Track quality 100.0 %
     Test CRC C1C480A4
     Copy CRC C1C480A4
     Accurately ripped (confidence 10)  [0EB3FC1A]  (AR v1)
     Copy OK
Track  2
     Filename C:\Program Files\Exact Audio Copy\rips\Various Artists - Enchantments (1995) [FLAC]\02 - Noise Unit - Kick to Kill.wav
     Peak level 83.9 %
     Extraction speed 2.3 X
     Track quality 100.0 %
     Test CRC AF3076A2
     Copy CRC AF3076A2
     Accurately ripped (confidence 11)  [57AC3E86]  (AR v1)
     Copy OK
Track  3
     Filename C:\Program Files\Exact Audio Copy\rips\Various Artists - Enchantments (1995) [FLAC]\03 - The Electric Hellfire Club - Night of the Buck Knives (Altamont Mix).wav
     Peak level 77.5 %
     Extraction speed 2.8 X
     Track quality 100.0 %
     Test CRC 64264907
     Copy CRC 64264907
     Accurately ripped (confidence 11)  [5CE00599]  (AR v1)
     Copy OK
Track  4
     Filename C:\Program Files\Exact Audio Copy\rips\Various Artists - Enchantments (1995) [FLAC]\04 - Die Krupps - Metal Machine Music (Degeneration Mix).wav
     Peak level 81.7 %
     Extraction speed 2.9 X
     Track quality 100.0 %
     Test CRC D36A2F55
     Copy CRC D36A2F55
     Accurately ripped (confidence 11)  [48D757BE]  (AR v1)
     Copy OK
Track  5
     Filename C:\Program Files\Exact Audio Copy\rips\Various Artists - Enchantments (1995) [FLAC]\05 - Penal Colony - Blue Nine (Free Me Mix).wav
     Peak level 79.4 %
     Extraction speed 3.1 X
     Track quality 100.0 %
     Test CRC 7DCC76BE
     Copy CRC 7DCC76BE
     Accurately ripped (confidence 11)  [4B1EA856]  (AR v1)
     Copy OK
Track  6
     Filename C:\Program Files\Exact Audio Copy\rips\Various Artists - Enchantments (1995) [FLAC]\06 - Laibach - Die Liebe.wav
     Pre-gap length  0:00:01.36
     Peak level 82.4 %
     Extraction speed 3.2 X
     Track quality 100.0 %
     Test CRC 9121C590
     Copy CRC 9121C590
     Accurately ripped (confidence 11)  [50A212A5]  (AR v1)
     Copy OK
Track  7
     Filename C:\Program Files\Exact Audio Copy\rips\Various Artists - Enchantments (1995) [FLAC]\07 - Spahn Ranch - Breath and Taxes (Deductable Mix).wav
     Pre-gap length  0:00:01.10
     Peak level 82.2 %
     Extraction speed 3.3 X
     Track quality 100.0 %
     Test CRC 230B4574
     Copy CRC 230B4574
     Accurately ripped (confidence 11)  [90E85F4D]  (AR v1)
     Copy OK
Track  8
     Filename C:\Program Files\Exact Audio Copy\rips\Various Artists - Enchantments (1995) [FLAC]\08 - T.H.D. - Cyberchrist.wav
     Pre-gap length  0:00:01.16
     Peak level 90.3 %
     Extraction speed 3.5 X
     Track quality 100.0 %
     Test CRC 2ECF8BB8
     Copy CRC 2ECF8BB8
     Accurately ripped (confidence 11)  [EBAD513A]  (AR v1)
     Copy OK
Track  9
     Filename C:\Program Files\Exact Audio Copy\rips\Various Artists - Enchantments (1995) [FLAC]\09 - Noise Box - Monkey Ass.wav
     Peak level 82.7 %
     Extraction speed 3.3 X
     Track quality 100.0 %
     Test CRC 3C72A8A3
     Copy CRC 3C72A8A3
     Accurately ripped (confidence 11)  [D4FA6415]  (AR v1)
     Copy OK
Track 10
     Filename C:\Program Files\Exact Audio Copy\rips\Various Artists - Enchantments (1995) [FLAC]\10 - X-Marks the Pedwalk - Abattoir (Razorblade Mix).wav
     Peak level 82.3 %
     Extraction speed 3.8 X
     Track quality 100.0 %
     Test CRC 52782179
     Copy CRC 52782179
     Accurately ripped (confidence 11)  [12D8A5D9]  (AR v1)
     Copy OK
Track 11
     Filename C:\Program Files\Exact Audio Copy\rips\Various Artists - Enchantments (1995) [FLAC]\11 - Kill Switch...Klick - Decanonized.wav
     Peak level 78.9 %
     Extraction speed 3.9 X
     Track quality 100.0 %
     Test CRC B9F481DB
     Copy CRC B9F481DB
     Accurately ripped (confidence 11)  [0171D737]  (AR v1)
     Copy OK
Track 12
     Filename C:\Program Files\Exact Audio Copy\rips\Various Artists - Enchantments (1995) [FLAC]\12 - Lights of Euphoria - Subjection (Violent Mix).wav
     Pre-gap length  0:00:01.42
     Peak level 81.9 %
     Extraction speed 4.0 X
     Track quality 100.0 %
     Test CRC 965D200C
     Copy CRC 965D200C
     Accurately ripped (confidence 11)  [FAA22EC7]  (AR v1)
     Copy OK
Track 13
     Filename C:\Program Files\Exact Audio Copy\rips\Various Artists - Enchantments (1995) [FLAC]\13 - Blok 57 - Burn Baby Burn.wav
     Peak level 82.3 %
     Extraction speed 3.9 X
     Track quality 100.0 %
     Test CRC 88EBF024
     Copy CRC 88EBF024
     Accurately ripped (confidence 11)  [357C3FB2]  (AR v1)
     Copy OK
Track 14
     Filename C:\Program Files\Exact Audio Copy\rips\Various Artists - Enchantments (1995) [FLAC]\14 - Psychopomps - Hate.wav
     Peak level 80.7 %
     Extraction speed 3.6 X
     Track quality 99.9 %
     Test CRC 83CD9B03
     Copy CRC 83CD9B03
     Accurately ripped (confidence 10)  [EA5711D4]  (AR v1)
     Copy OK
Track 15
     Filename C:\Program Files\Exact Audio Copy\rips\Various Artists - Enchantments (1995) [FLAC]\15 - Front Line Assembly - Immobilized.wav
     Pre-gap length  0:00:01.04
     Peak level 83.0 %
     Extraction speed 4.2 X
     Track quality 100.0 %
     Test CRC D93A28A8
     Copy CRC D93A28A8
     Accurately ripped (confidence 11)  [2F1262F6]  (AR v1)
     Copy OK
Track 16
     Filename C:\Program Files\Exact Audio Copy\rips\Various Artists - Enchantments (1995) [FLAC]\16 - Leæther Strip - Torture (A Suicide Note).wav
     Pre-gap length  0:00:00.16
     Peak level 79.7 %
     Extraction speed 4.6 X
     Track quality 100.0 %
     Test CRC CA97B066
     Copy CRC CA97B066
     Accurately ripped (confidence 11)  [5F87932C]  (AR v1)
     Copy OK
All tracks accurately ripped
No errors occurred
End of status report
==== Log checksum C7D7D4BF1C86B743A5BCD260B8F246DC7DD6C36E77E815ECAECB1849FE25345F ====
Код:
REM GENRE Industrial
REM DATE 1995
REM DISCID EC123910
REM COMMENT "ExactAudioCopy v1.0b2"
PERFORMER "Various"
TITLE "Enchantments"
FILE "01 - Digital Poodle - Head of Levin (Remix).wav" WAVE
  TRACK 01 AUDIO
    TITLE "Head of Levin (Remix)"
    PERFORMER "Digital Poodle"
    INDEX 01 00:00:00
FILE "02 - Noise Unit - Kick to Kill.wav" WAVE
  TRACK 02 AUDIO
    TITLE "Kick to Kill"
    PERFORMER "Noise Unit"
    INDEX 01 00:00:00
FILE "03 - The Electric Hellfire Club - Night of the Buck Knives (Altamont Mix).wav" WAVE
  TRACK 03 AUDIO
    TITLE "Night of the Buck Knives (Altamont Mix)"
    PERFORMER "The Electric Hellfire Club"
    INDEX 01 00:00:00
FILE "04 - Die Krupps - Metal Machine Music (Degeneration Mix).wav" WAVE
  TRACK 04 AUDIO
    TITLE "Metal Machine Music (Degeneration Mix)"
    PERFORMER "Die Krupps"
    INDEX 01 00:00:00
FILE "05 - Penal Colony - Blue Nine (Free Me Mix).wav" WAVE
  TRACK 05 AUDIO
    TITLE "Blue Nine (Free Me Mix)"
    PERFORMER "Penal Colony"
    INDEX 01 00:00:00
  TRACK 06 AUDIO
    TITLE "Die Liebe"
    PERFORMER "Laibach"
    INDEX 00 05:40:13
FILE "06 - Laibach - Die Liebe.wav" WAVE
    INDEX 01 00:00:00
  TRACK 07 AUDIO
    TITLE "Breath and Taxes (Deductable Mix)"
    PERFORMER "Spahn Ranch"
    INDEX 00 04:25:05
FILE "07 - Spahn Ranch - Breath and Taxes (Deductable Mix).wav" WAVE
    INDEX 01 00:00:00
  TRACK 08 AUDIO
    TITLE "Cyberchrist"
    PERFORMER "T.H.D."
    INDEX 00 03:59:05
FILE "08 - T.H.D. - Cyberchrist.wav" WAVE
    INDEX 01 00:00:00
FILE "09 - Noise Box - Monkey Ass.wav" WAVE
  TRACK 09 AUDIO
    TITLE "Monkey Ass"
    PERFORMER "Noise Box"
    INDEX 01 00:00:00
FILE "10 - X-Marks the Pedwalk - Abattoir (Razorblade Mix).wav" WAVE
  TRACK 10 AUDIO
    TITLE "Abattoir (Razorblade Mix)"
    PERFORMER "X-Marks the Pedwalk"
    INDEX 01 00:00:00
FILE "11 - Kill Switch...Klick - Decanonized.wav" WAVE
  TRACK 11 AUDIO
    TITLE "Decanonized"
    PERFORMER "Kill Switch...Klick"
    INDEX 01 00:00:00
  TRACK 12 AUDIO
    TITLE "Subjection (Violent Mix)"
    PERFORMER "Lights of Euphoria"
    INDEX 00 04:40:23
FILE "12 - Lights of Euphoria - Subjection (Violent Mix).wav" WAVE
    INDEX 01 00:00:00
FILE "13 - Blok 57 - Burn Baby Burn.wav" WAVE
  TRACK 13 AUDIO
    TITLE "Burn Baby Burn"
    PERFORMER "Blok 57"
    INDEX 01 00:00:00
FILE "14 - Psychopomps - Hate.wav" WAVE
  TRACK 14 AUDIO
    TITLE "Hate"
    PERFORMER "Psychopomps"
    INDEX 01 00:00:00
  TRACK 15 AUDIO
    TITLE "Immobilized"
    PERFORMER "Front Line Assembly"
    INDEX 00 03:59:25
FILE "15 - Front Line Assembly - Immobilized.wav" WAVE
    INDEX 01 00:00:00
  TRACK 16 AUDIO
    TITLE "Torture (A Suicide Note)"
    PERFORMER "Leaether Strip"
    INDEX 00 04:09:25
FILE "16 - Leaether Strip - Torture (A Suicide Note).wav" WAVE
    INDEX 01 00:00:00
Код:
AUDIOCHECKER v2.0 beta (build 457) - by Dester - opdester@freemail.hu
~~~~~~~~~~~~~~~~~~~~~~~~~~~~~~~~~~
-=== DO NOT EDIT THIS FILE! ===-
Path: ...\Various Artists - Enchantments (1995) [FLAC]
01 -=- 01 - Digital Poodle - Head of Levin (Remix).flac -=- CDDA (100%)
02 -=- 02 - Noise Unit - Kick to Kill.flac -=- CDDA (100%)
03 -=- 03 - The Electric Hellfire Club - Night of the Buck Knives (Altamont Mix).flac -=- CDDA (100%)
04 -=- 04 - Die Krupps - Metal Machine Music (Degeneration Mix).flac -=- CDDA (100%)
05 -=- 05 - Penal Colony - Blue Nine (Free Me Mix).flac -=- CDDA (100%)
06 -=- 06 - Laibach - Die Liebe.flac -=- CDDA (100%)
07 -=- 07 - Spahn Ranch - Breath and Taxes (Deductable Mix).flac -=- CDDA (100%)
08 -=- 08 - T.H.D. - Cyberchrist.flac -=- CDDA (99%)
09 -=- 09 - Noise Box - Monkey Ass.flac -=- CDDA (100%)
10 -=- 10 - X-Marks the Pedwalk - Abattoir (Razorblade Mix).flac -=- CDDA (100%)
11 -=- 11 - Kill Switch...Klick - Decanonized.flac -=- CDDA (99%)
12 -=- 12 - Lights of Euphoria - Subjection (Violent Mix).flac -=- CDDA (100%)
13 -=- 13 - Blok 57 - Burn Baby Burn.flac -=- CDDA (99%)
14 -=- 14 - Psychopomps - Hate.flac -=- CDDA (100%)
15 -=- 15 - Front Line Assembly - Immobilized.flac -=- CDDA (100%)
16 -=- 16 - Leaether Strip - Torture (A Suicide Note).flac -=- CDDA (99%)
Summary 99,75% CDDA
210860676
Правила, инструкции, FAQ!!!
Торрент  Добавлен [26 июн 2020, 20:27] Скачать торрент Магнет ссылка
Скачать торрент
[ Размер 21.71 КБ / Просмотров 5 ]

Статус
Проверен 
 
Размер  507.08 МБ
Приватный: Нет (DHT включён)
.torrent скачан  0
 


     Отправить личное сообщение
   
Страница 1 из 1
Показать сообщения за:  Поле сортировки  
Начать новую тему Ответить на тему


Сейчас этот форум просматривают: нет зарегистрированных пользователей и гости: 0


Вы не можете начинать темы
Вы не можете отвечать на сообщения
Вы не можете редактировать свои сообщения
Вы не можете удалять свои сообщения
Вы не можете добавлять вложения

Перейти:  
cron