Начать новую тему Ответить на тему
Статистика раздачи
Размер: 468.28 МБ | Добавлен: 26 июн 2020, 16:53 | Скачали: 0
Сидеров: 0  [0 байт/сек]    Личеров: 0  [0 байт/сек]
Пред. тема | След. тема 

Автор
Сообщение

СообщениеДобавлено: 26 июн 2020, 16:53 

Ответить с цитатой 

Birmingham 6 - 'Error Of Judgement'
Жанр: Industrial, Electro, EBM
Год выпуска диска: 1996
Производитель диска: USA
Аудио кодек: APE
Тип рипа: image+.cue
Битрейт аудио: lossless
Продолжительность: 66 мин
Трэклист:
1. The Kill - 4.26
2. Summertime is Over - 5.34
3. The Deadliest Beat - 5.54
4. Little Demon - 5.20
5. You Cannot Walk Here - 5.14
6. Food for Thoughts - 5.07
7. The Garden - 6.04
8. One of These Days - 5.47
9. Die for Jehovah - 4.43
10.The Scream - 5.39
11.The Trip - 6.05
12.A Good Day - 5.59
Доп. информация: Музыкальный материал предоставлен исключительно для ознакомления.
Один из лучших и наиболее цельных альбомов Bigmingham 6.
Фирменный диск предоставлен oooeloyrec из личной коллекции,
за что ему большое спасибо.
Код:
Exact Audio Copy V0.99 prebeta 4 from 23. January 2008
Отчёт EAC об извлечении, выполненном 9. февраля 2009, 10:59
Birmingham 6 / Error Of Judgement
Дисковод: Optiarc DVD RW AD-7200S   Adapter: 2  ID: 1
Режим чтения                 : Достоверность
Использование точного потока : Да
Отключение кэша аудио        : Да
Использование указателей C2  : Нет
Коррекция смещения при чтении                     : 48
Способность читать области Lead-in и Lead-out     : Нет
Заполнение пропущенных сэмплов тишиной            : Да
Удаление блоков с тишиной в начале и конце        : Нет
При вычислениях CRC использовались нулевые сэмплы : Да
Интерфейс                                         : Встроенный Win32-интерфейс для Win NT/2000
Выходной формат : Внутренние WAV-операции
Формат сэмплов  : 44.100 Гц; 16 бит; стерео
TOC извлечённого CD
     Трек |   Старт  | Длительность | Начальный сектор | Конечный сектор
    ---------------------------------------------------------------------
       1  |  0:00.00 |    4:27.01   |           0      |      20025
       2  |  4:27.01 |    5:34.40   |       20026      |      45115
       3  | 10:01.41 |    5:54.70   |       45116      |      71735
       4  | 15:56.36 |    5:20.34   |       71736      |      95769
       5  | 21:16.70 |    5:14.37   |       95770      |     119356
       6  | 26:31.32 |    5:07.57   |      119357      |     142438
       7  | 31:39.14 |    6:03.51   |      142439      |     169714
       8  | 37:42.65 |    5:47.09   |      169715      |     195748
       9  | 43:29.74 |    4:43.10   |      195749      |     216983
      10  | 48:13.09 |    5:39.38   |      216984      |     242446
      11  | 53:52.47 |    6:05.50   |      242447      |     269871
      12  | 59:58.22 |    5:59.08   |      269872      |     296804
Характеристики диапазона извлечения и сообщения об ошибках
Выбранный диапазон
     Имя файла E:\Раздачи\Birmingham 6 - 'Error Of Judgement' [1996] [rutracker.org]\Birmingham 6 - Error Of Judgement.wav
     Пиковый уровень 99.8 %
     Качество диапазона 100.0 %
     CRC теста A9B3A8E8
     CRC копии A9B3A8E8
     Копирование... OK
Ошибок не произошло
Конец отчёта
Буду признателен за отзывы, комментарии и благодарности.
Правила, инструкции, FAQ!!!
Торрент  Добавлен [26 июн 2020, 16:53] Скачать торрент Магнет ссылка
Скачать торрент
[ Размер 19.11 КБ / Просмотров 5 ]

Статус
Проверен 
 
Размер  468.28 МБ
Приватный: Нет (DHT включён)
.torrent скачан  0
 


     Отправить личное сообщение
   
Страница 1 из 1
Показать сообщения за:  Поле сортировки  
Начать новую тему Ответить на тему


Сейчас этот форум просматривают: нет зарегистрированных пользователей и гости: 0


Вы не можете начинать темы
Вы не можете отвечать на сообщения
Вы не можете редактировать свои сообщения
Вы не можете удалять свои сообщения
Вы не можете добавлять вложения

Перейти:  
cron