Начать новую тему Ответить на тему
Статистика раздачи
Размер: 257.2 МБ | Добавлен: 26 июн 2020, 17:39 | Скачали: 1
Сидеров: 0  [0 байт/сек]    Личеров: 0  [0 байт/сек]
Пред. тема | След. тема 

Автор
Сообщение

СообщениеДобавлено: 26 июн 2020, 17:39 

Ответить с цитатой 

Dive - True Lies
Жанр: Industrial, Electro
Год выпуска диска: 1999
Производитель диска: US
Аудио кодек: FLAC
Тип рипа: tracks+.cue
Битрейт аудио: lossless
Продолжительность: 38:34
Трэклист:
1 True Lies (One) (3:01)
2 Sidewalk Sinner (3:29)
3 Breathing (4:14)
4 Give It To Me (3:36)
5 Two Faced Man (3:37)
6 Be Yourself (4:27)
7 Dreamhunter (3:29)
8 Voodoo Child (3:43)
9 Are You Awake? (3:29)
10 True Lies (Two) (5:17)
Доп. информация:
Label: COP International
Catalog#: COP CD1004
Credits: Artwork By - Koenraad Cant
Featuring - Ivan Iusco (tracks: 3, 7, 8, 10)
Photography - Sven-Eric Sindt; Producer - Eric Van Wonterghem
Vocals, Programmed By - Dirk Ivens
Notes: Mastered at Prodam.
Код:
Exact Audio Copy V0.99 prebeta 4 from 23. January 2008
EAC extraction logfile from 27. November 2008, 21:13
Dive / True Lies
Used drive  : _NEC    DVD_RW ND-3550A   Adapter: 0  ID: 0
Read mode               : Secure
Utilize accurate stream : Yes
Defeat audio cache      : Yes
Make use of C2 pointers : No
Read offset correction                      : 48
Overread into Lead-In and Lead-Out          : No
Fill up missing offset samples with silence : Yes
Delete leading and trailing silent blocks   : No
Null samples used in CRC calculations       : Yes
Used interface                              : Installed external ASPI interface
Gap handling                                : Appended to previous track
Used output format              : User Defined Encoder
Selected bitrate                : 1024 kBit/s
Quality                         : High
Add ID3 tag                     : No
Command line compressor         : D:\Programs\Tools\_Exact Audio Copy\FLAC\FLAC.EXE
Additional command line options : -8 -V -T "ARTIST=%a" -T "TITLE=%t" -T "ALBUM=%g" -T "DATE=%y" -T "TRACKNUMBER=%n" -T "GENRE=%m" -T "COMMENT=%e" %s -o %d
TOC of the extracted CD
     Track |   Start  |  Length  | Start sector | End sector
    ---------------------------------------------------------
        1  |  0:00.00 |  5:18.08 |         0    |    23857
        2  |  5:18.08 |  3:32.62 |     23858    |    39819
        3  |  8:50.70 |  4:13.74 |     39820    |    58868
        4  | 13:04.69 |  3:35.74 |     58869    |    75067
        5  | 16:40.68 |  3:37.27 |     75068    |    91369
        6  | 20:18.20 |  4:27.12 |     91370    |   111406
        7  | 24:45.32 |  3:29.06 |    111407    |   127087
        8  | 28:14.38 |  3:43.50 |    127088    |   143862
        9  | 31:58.13 |  3:28.62 |    143863    |   159524
       10  | 35:27.00 |  3:07.37 |    159525    |   173586
Track  1
     Filename G:\EAC Temporare\01 True Lies.wav
     Pre-gap length  0:00:02.00
     Peak level 61.5 %
     Track quality 99.9 %
     Test CRC 4A084345
     Copy CRC 4A084345
     Accurately ripped (confidence 2)  [B08E6A1A]
     Copy OK
Track  2
     Filename G:\EAC Temporare\02 Sidewalk Sinner.wav
     Peak level 87.3 %
     Track quality 99.9 %
     Test CRC F04785AF
     Copy CRC F04785AF
     Accurately ripped (confidence 2)  [10613880]
     Copy OK
Track  3
     Filename G:\EAC Temporare\03 Breathing.wav
     Peak level 87.5 %
     Track quality 100.0 %
     Test CRC 52E6F70A
     Copy CRC 52E6F70A
     Accurately ripped (confidence 2)  [B6EFB4EB]
     Copy OK
Track  4
     Filename G:\EAC Temporare\04 Give It To Me.wav
     Peak level 74.2 %
     Track quality 100.0 %
     Test CRC 2439F7EB
     Copy CRC 2439F7EB
     Accurately ripped (confidence 2)  [6C99796C]
     Copy OK
Track  5
     Filename G:\EAC Temporare\05 Two Faced Man.wav
     Peak level 48.5 %
     Track quality 100.0 %
     Test CRC 4D54AF69
     Copy CRC 4D54AF69
     Accurately ripped (confidence 2)  [EACB6013]
     Copy OK
Track  6
     Filename G:\EAC Temporare\06 Be Yourself.wav
     Peak level 87.2 %
     Track quality 100.0 %
     Test CRC 5A4BB844
     Copy CRC 5A4BB844
     Accurately ripped (confidence 2)  [0E35AA75]
     Copy OK
Track  7
     Filename G:\EAC Temporare\07 Dreamhunter.wav
     Peak level 73.5 %
     Track quality 100.0 %
     Test CRC 76930AB6
     Copy CRC 76930AB6
     Accurately ripped (confidence 2)  [DC316EEC]
     Copy OK
Track  8
     Filename G:\EAC Temporare\08 Voodoo Child.wav
     Peak level 68.3 %
     Track quality 100.0 %
     Test CRC 57F3A00C
     Copy CRC 57F3A00C
     Accurately ripped (confidence 2)  [7D2D3F2A]
     Copy OK
Track  9
     Filename G:\EAC Temporare\09 Are You Awake .wav
     Peak level 73.7 %
     Track quality 100.0 %
     Test CRC 35535F72
     Copy CRC 35535F72
     Accurately ripped (confidence 2)  [7BAD7485]
     Copy OK
Track 10
     Filename G:\EAC Temporare\10 True Lies (Two).wav
     Peak level 71.8 %
     Track quality 100.0 %
     Test CRC A922D037
     Copy CRC A922D037
     Accurately ripped (confidence 2)  [0E15B863]
     Copy OK
All tracks accurately ripped
No errors occurred
End of status report

Зарелизено на rutracker.org

на раздаче ВСЕГДА в нерабочее время (вечер, ночь, выходные), в остальное время как получится
Правила, инструкции, FAQ!!!
Торрент  Добавлен [26 июн 2020, 17:39] Скачать торрент Магнет ссылка
Скачать торрент
[ Размер 11.5 КБ / Просмотров 15 ]

Статус
Проверен 
 
Размер  257.2 МБ
Приватный: Нет (DHT включён)
.torrent скачан  1
 


     Отправить личное сообщение
   
Страница 1 из 1
Показать сообщения за:  Поле сортировки  
Начать новую тему Ответить на тему


Сейчас этот форум просматривают: нет зарегистрированных пользователей и гости: 0


Вы не можете начинать темы
Вы не можете отвечать на сообщения
Вы не можете редактировать свои сообщения
Вы не можете удалять свои сообщения
Вы не можете добавлять вложения

Перейти:  
cron