Начать новую тему Ответить на тему
Статистика раздачи
Размер: 427.23 МБ | Добавлен: 26 июн 2020, 17:56 | Скачали: 0
Сидеров: 0  [0 байт/сек]    Личеров: 0  [0 байт/сек]
Пред. тема | След. тема 

Автор
Сообщение

СообщениеДобавлено: 26 июн 2020, 17:56 

Ответить с цитатой 

DavaNtage - Global Badlands
Жанр: Industrial, Electro
Год выпуска диска: 2001
Производитель диска: Германия
Аудио кодек: FLAC
Тип рипа: tracks+.cue
Битрейт аудио: lossless
Трэклист:
01.Dream Of Vegas (5:31)
02.Mass X (5:15)
03.No Candle-Light (7:13)
04.From A Distance (6:08)
05.Some Kind Of A Virus (3:34)
06.Global Badlands (6:19)
07.Crisis (5:08)
08.Coldest Place (7:30)
09.Violent Corona (4:22)
10.21 Eradicate (3:02)
Код:
Exact Audio Copy V0.99 prebeta 5 from 4. May 2009
Отчёт EAC об извлечении, выполненном 29. июля 2009, 0:45
davaNtage / Global Badlands
Дисковод: Optiarc DVD RW AD-7201S   Adapter: 1  ID: 1
Режим чтения                 : Достоверность
Использование точного потока : Да
Отключение кэша аудио        : Да
Использование указателей C2  : Нет
Коррекция смещения при чтении                     : 48
Способность читать области Lead-in и Lead-out     : Нет
Заполнение пропущенных сэмплов тишиной            : Да
Удаление блоков с тишиной в начале и конце        : Нет
При вычислениях CRC использовались нулевые сэмплы : Да
Интерфейс                                         : Установленный внешний
ASPI-интерфейс
Обработка зазоров                                 : Не обнаружено, добавлено
к предыдущему треку
Выходной формат          : Monkey's Audio (без потерь)
Выбранный битрейт        : Fast Lossless Compression
Качество                 : Высокий
Добавление ID3-тэга      : Нет
Утилита сжатия           : D:\Program Files\Monkey's Audio\Monkey's Audio.exe
TOC извлечённого CD
     Трек |   Старт  | Длительность | Начальный сектор | Конечный сектор
    ---------------------------------------------------------------------
       1  |  0:00.00 |    5:31.29   |           0      |      24853
       2  |  5:31.29 |    5:15.25   |       24854      |      48503
       3  | 10:46.54 |    7:12.45   |       48504      |      80948
       4  | 17:59.24 |    6:07.69   |       80949      |     108542
       5  | 24:07.18 |    3:33.58   |      108543      |     124575
       6  | 27:41.01 |    6:18.54   |      124576      |     152979
       7  | 33:59.55 |    5:07.53   |      152980      |     176057
       8  | 39:07.33 |    7:29.71   |      176058      |     209803
       9  | 46:37.29 |    4:22.13   |      209804      |     229466
      10  | 50:59.42 |    3:02.69   |      229467      |     243185
Трек  1
     Имя файла D:\Documents and Settings\Rodexx\Рабочий стол\Новая
папка\Dream of Vegas.wav
     Пиковый уровень 100.0 %
     Качество трека 100.0 %
     CRC теста CB2D2F55
     CRC копии CB2D2F55
     Копирование... OK
Трек  2
     Имя файла D:\Documents and Settings\Rodexx\Рабочий стол\Новая папка\Mass
X.wav
     Пиковый уровень 100.0 %
     Качество трека 100.0 %
     CRC теста 24EBD608
     CRC копии 24EBD608
     Копирование... OK
Трек  3
     Имя файла D:\Documents and Settings\Rodexx\Рабочий стол\Новая папка\No
Candle-Light.wav
     Пиковый уровень 100.0 %
     Качество трека 100.0 %
     CRC теста 4C62E21D
     CRC копии 4C62E21D
     Копирование... OK
Трек  4
     Имя файла D:\Documents and Settings\Rodexx\Рабочий стол\Новая папка\From
a Distance.wav
     Пиковый уровень 100.0 %
     Качество трека 99.9 %
     CRC теста 15EC3F09
     CRC копии 15EC3F09
      Копирование... OK
Трек  5
     Имя файла D:\Documents and Settings\Rodexx\Рабочий стол\Новая папка\Some
Kind of a Virus.wav
     Пиковый уровень 100.0 %
     Качество трека 100.0 %
     CRC теста 8BFF440B
     CRC копии 8BFF440B
     Копирование... OK
Трек  6
     Имя файла D:\Documents and Settings\Rodexx\Рабочий стол\Новая
папка\Global Badlands.wav
     Пиковый уровень 100.0 %
     Качество трека 100.0 %
     CRC теста 388F925B
     CRC копии 388F925B
     Копирование... OK
Трек  7
     Имя файла D:\Documents and Settings\Rodexx\Рабочий стол\Новая
папка\Crisis.wav
     Пиковый уровень 100.0 %
     Качество трека 100.0 %
     CRC теста B2E33ED3
     CRC копии B2E33ED3
     Копирование... OK
Трек  8
     Имя файла D:\Documents and Settings\Rodexx\Рабочий стол\Новая
папка\Coldest Place.wav
     Пиковый уровень 100.0 %
     Качество трека 99.9 %
     CRC теста 22B4BA9D
     CRC копии 22B4BA9D
     Копирование... OK
Трек  9
     Имя файла D:\Documents and Settings\Rodexx\Рабочий стол\Новая
папка\Violent Corona.wav
     Пиковый уровень 100.0 %
     Качество трека 100.0 %
     CRC теста D07B9A7F
     CRC копии D07B9A7F
     Копирование... OK
Трек 10
     Имя файла D:\Documents and Settings\Rodexx\Рабочий стол\Новая папка\21
Eradicate.wav
     Пиковый уровень 100.0 %
     Качество трека 100.0 %
     CRC теста 9BEDB7FB
     CRC копии 9BEDB7FB
     Копирование... OK
Ошибок не произошло
Конец отчёта
 
Started at: среда, 29. 07. 2009. - 1:03.03
10 files found
01 -===- D:\Documents and Settings\Rodexx\Рабочий стол\Новая папка\(01)Dream of Vegas.wav
Conclusion: this track is CDDA with probability 100%
02 -===- D:\Documents and Settings\Rodexx\Рабочий стол\Новая папка\(02)Mass X.wav
Conclusion: this track is CDDA with probability 100%
03 -===- D:\Documents and Settings\Rodexx\Рабочий стол\Новая папка\(03)No Candle-Light.wav
Conclusion: this track is CDDA with probability 100%
04 -===- D:\Documents and Settings\Rodexx\Рабочий стол\Новая папка\(04)From a Distance.wav
Conclusion: this track is CDDA with probability 100%
05 -===- D:\Documents and Settings\Rodexx\Рабочий стол\Новая папка\(05)Some Kind of a Virus.wav
Conclusion: this track is CDDA with probability 100%
06 -===- D:\Documents and Settings\Rodexx\Рабочий стол\Новая папка\(06)Global Badlands.wav
Conclusion: this track is CDDA with probability 100%
07 -===- D:\Documents and Settings\Rodexx\Рабочий стол\Новая папка\(07)Crisis.wav
Conclusion: this track is CDDA with probability 100%
08 -===- D:\Documents and Settings\Rodexx\Рабочий стол\Новая папка\(08)Coldest Place.wav
Conclusion: this track is CDDA with probability 100%
09 -===- D:\Documents and Settings\Rodexx\Рабочий стол\Новая папка\(09)Violent Corona.wav
Conclusion: this track is CDDA with probability 99%
10 -===- D:\Documents and Settings\Rodexx\Рабочий стол\Новая папка\(10)21 Eradicate.wav
Conclusion: this track is CDDA with probability 100%
Finished at: среда, 29. 07. 2009. - 1:08.06 (operation time: 0:05.03)
Код:
 
REM GENRE EBM
REM DATE 2002
REM DISCID 870CAA0A
REM COMMENT "ExactAudioCopy v0.99pb5"
PERFORMER "davaNtage"
TITLE "Global Badlands"
FILE "Dream of Vegas.flac" WAVE
TRACK 01 AUDIO
TITLE "Dream of Vegas"
PERFORMER "davaNtage"
INDEX 01 00:00:00
FILE "Mass X.flac" WAVE
TRACK 02 AUDIO
TITLE "Mass X"
PERFORMER "davaNtage"
INDEX 01 00:00:00
FILE "No Candle-Light.flac" WAVE
TRACK 03 AUDIO
TITLE "No Candle-Light"
PERFORMER "davaNtage"
INDEX 01 00:00:00
FILE "From a Distance.flac" WAVE
TRACK 04 AUDIO
TITLE "From a Distance"
PERFORMER "davaNtage"
INDEX 01 00:00:00
FILE "Some Kind of a Virus.flac" WAVE
TRACK 05 AUDIO
TITLE "Some Kind of a Virus"
PERFORMER "davaNtage"
INDEX 01 00:00:00
FILE "Global Badlands.flac" WAVE
TRACK 06 AUDIO
TITLE "Global Badlands"
PERFORMER "davaNtage"
INDEX 01 00:00:00
FILE "Crisis.flac" WAVE
TRACK 07 AUDIO
TITLE "Crisis"
PERFORMER "davaNtage"
INDEX 01 00:00:00
FILE "Coldest Place.flac" WAVE
TRACK 08 AUDIO
TITLE "Coldest Place"
PERFORMER "davaNtage"
INDEX 01 00:00:00
FILE "Violent Corona.flac" WAVE
TRACK 09 AUDIO
TITLE "Violent Corona"
PERFORMER "davaNtage"
INDEX 01 00:00:00
FILE "21 Eradicate.flac" WAVE
TRACK 10 AUDIO
TITLE "21 Eradicate"
PERFORMER "davaNtage"
INDEX 01 00:00:00
Label:Black Rain
Catalog#:BR 013
Format:CD, Album
Country:Germany
Released:
2001Genre:Electronic
Style:Industrial, Electro
Правила, инструкции, FAQ!!!
Торрент  Добавлен [26 июн 2020, 17:56] Скачать торрент Магнет ссылка
Скачать торрент
[ Размер 17.83 КБ / Просмотров 9 ]

Статус
Проверен 
 
Размер  427.23 МБ
Приватный: Нет (DHT включён)
.torrent скачан  0
 


     Отправить личное сообщение
   
Страница 1 из 1
Показать сообщения за:  Поле сортировки  
Начать новую тему Ответить на тему


Сейчас этот форум просматривают: нет зарегистрированных пользователей и гости: 0


Вы не можете начинать темы
Вы не можете отвечать на сообщения
Вы не можете редактировать свои сообщения
Вы не можете удалять свои сообщения
Вы не можете добавлять вложения

Перейти:  
cron
cron