Начать новую тему Ответить на тему
Статистика раздачи
Размер: 541.91 МБ | Добавлен: 26 июн 2020, 17:53 | Скачали: 0
Сидеров: 0  [0 байт/сек]    Личеров: 0  [0 байт/сек]
Пред. тема | След. тема 

Автор
Сообщение

СообщениеДобавлено: 26 июн 2020, 17:53 

Ответить с цитатой 

Various - We Came to Dance Vol. VII.1995
Жанр: Industrial, Electro, Darkwave
Носитель: CD
Страна-производитель диска (релиза): Germany
Год издания: 1995
Издатель (лейбл): Sub Terranean
Номер по каталогу: SPV 084-38392
Страна исполнителя (группы): Germany
Аудиокодек: FLAC (*.flac)
Тип рипа: image+.cue
Продолжительность: 1:13:49
Источник: собственный рип
Наличие сканов в содержимом раздачи: да
Треклист:
1 . Calva Y Nada - Fernes Leid 5:05
2 . X Marks The Pedwalk - Missing Light 4:26
3 . Lacrimosa - Copycat 4:55
4 . E.C.M. - Poison 5:45
5 . Evils Toy - Dear God 5:26
6 . The Fair Sex -Cyberbite 4:57
7 . Bionic - Trail Of Torment 4:55
8 . The Frozen Autumn - Again 5:23
9 . Zero Defects - Duracel (Maxi Version) 6:00
10 . Covenant - Theremin (Club Edit) 4:32
11 . Ghosting - Bombed The World 5:35
12 . Haujobb - World Window (Album Version) 5:00
13 . Revenge Of Nephthys - The Factory (Industrial Mix) 3:30
14 . Cyber Axis - Faith No More (95er Edit) 4:26
15 . Regenerator - Everyone Follow (Orgazmix) 3:44
16 . Welle : Erdball - W.o.l.f. 3:53
Код:
Exact Audio Copy V1.3 from 2. September 2016
Отчёт EAC об извлечении, выполненном 13. марта 2020, 12:41
Various / We Came To Dance Vol. VII
Дисковод: HL-DT-STDVD+-RW GU90N   Adapter: 1  ID: 0
Режим чтения                 : Достоверность
Использование точного потока : Да
Отключение кэша аудио        : Нет
Использование указателей C2  : Да
Коррекция смещения при чтении                     : 102
Способность читать области Lead-in и Lead-out     : Нет
Заполнение пропущенных сэмплов тишиной            : Да
Удаление блоков с тишиной в начале и конце        : Нет
При вычислениях CRC использовались нулевые сэмплы : Да
Интерфейс                                         : Встроенный Win32-интерфейс для Win NT/2000
Выходной формат : Внутренние WAV-операции
Формат сэмплов  : 44.100 Гц; 16 бит; стерео
TOC извлечённого CD
     Трек |   Старт  | Длительность | Начальный сектор | Конечный сектор
    ---------------------------------------------------------------------
       1  |  0:00.00 |    5:06.67   |           0      |      23016
       2  |  5:06.67 |    4:26.30   |       23017      |      42996
       3  |  9:33.22 |    4:55.63   |       42997      |      65184
       4  | 14:29.10 |    5:45.37   |       65185      |      91096
       5  | 20:14.47 |    5:26.73   |       91097      |     115619
       6  | 25:41.45 |    4:56.57   |      115620      |     137876
       7  | 30:38.27 |    4:56.23   |      137877      |     160099
       8  | 35:34.50 |    5:24.10   |      160100      |     184409
       9  | 40:58.60 |    6:01.02   |      184410      |     211486
      10  | 46:59.62 |    4:32.43   |      211487      |     231929
      11  | 51:32.30 |    5:35.27   |      231930      |     257081
      12  | 57:07.57 |    5:00.50   |      257082      |     279631
      13  | 62:08.32 |    3:30.43   |      279632      |     295424
      14  | 65:39.00 |    4:26.02   |      295425      |     315376
      15  | 70:05.02 |    3:44.10   |      315377      |     332186
      16  | 73:49.12 |    3:52.63   |      332187      |     349649
Характеристики диапазона извлечения и сообщения об ошибках
Выбранный диапазон
     Имя файла D:\We Came To Dance - Indie Dancefloor\Various - We Came To Dance  Vol. VII.1995\Various - We Came To Dance Vol. VII.wav
     Пиковый уровень 99.6 %
     Скорость извлечения 13.6 X
     Качество диапазона 100.0 %
     CRC копии 7DEA2033
     Копирование... OK
Ошибок не произошло
AccurateRip: сводка
Трек  1  : извлечено точно (доверие 8)  [09E15DAF]  (AR v2)
Трек  2  : извлечено точно (доверие 9)  [72695903]  (AR v2)
Трек  3  : извлечено точно (доверие 9)  [E3CD876A]  (AR v2)
Трек  4  : извлечено точно (доверие 9)  [4DF631FD]  (AR v2)
Трек  5  : извлечено точно (доверие 9)  [6FA596AA]  (AR v2)
Трек  6  : извлечено точно (доверие 9)  [705197B5]  (AR v2)
Трек  7  : извлечено точно (доверие 9)  [F37FA7F5]  (AR v2)
Трек  8  : извлечено точно (доверие 9)  [2104D406]  (AR v2)
Трек  9  : извлечено точно (доверие 9)  [CDF46BBC]  (AR v2)
Трек 10  : извлечено точно (доверие 9)  [27C1A217]  (AR v2)
Трек 11  : извлечено точно (доверие 9)  [41259900]  (AR v2)
Трек 12  : извлечено точно (доверие 9)  [A7AA2883]  (AR v2)
Трек 13  : извлечено точно (доверие 9)  [A30D9299]  (AR v2)
Трек 14  : извлечено точно (доверие 9)  [77712681]  (AR v2)
Трек 15  : извлечено точно (доверие 9)  [E81C3859]  (AR v2)
Трек 16  : извлечено точно (доверие 9)  [A28FE0AC]  (AR v2)
Все треки извлечены точно
Конец отчёта
---- CUETools DB Plugin V2.1.6
[CTDB TOCID: lfdD6TVkTL2z.9b7vxLQAnfNl4Q-] found
Submit result: lfdD6TVkTL2z.9b7vxLQAnfNl4Q- has been confirmed, already submitted
Track | CTDB Status
  1   | (27/27) Accurately ripped
  2   | (27/27) Accurately ripped
  3   | (27/27) Accurately ripped
  4   | (27/27) Accurately ripped
  5   | (26/27) Accurately ripped
  6   | (27/27) Accurately ripped
  7   | (27/27) Accurately ripped
  8   | (27/27) Accurately ripped
  9   | (27/27) Accurately ripped
 10   | (27/27) Accurately ripped
 11   | (27/27) Accurately ripped
 12   | (27/27) Accurately ripped
 13   | (26/27) Accurately ripped
 14   | (27/27) Accurately ripped
 15   | (27/27) Accurately ripped
 16   | (27/27) Accurately ripped
==== Контрольная сумма отчёта 6307D2E10587FE9D735DF963BEF13CE1B00BC68BFE8252BB5310E1D53EFC6DB7 ====
Код:
REM GENRE Industrial
REM DATE 1995
REM DISCID D0123610
REM COMMENT "ExactAudioCopy v1.3"
PERFORMER "Various"
TITLE "We Came To Dance Vol. VII"
REM COMPOSER ""
FILE "Various - We Came To Dance Vol. VII.flac" WAVE
  TRACK 01 AUDIO
    TITLE "Fernes Leid"
    PERFORMER "Calva Y Nada"
    REM COMPOSER ""
    INDEX 01 00:00:00
  TRACK 02 AUDIO
    TITLE "Missing Light"
    PERFORMER "X Marks The Pedwalk"
    REM COMPOSER ""
    INDEX 00 05:05:72
    INDEX 01 05:06:67
  TRACK 03 AUDIO
    TITLE "Copycat"
    PERFORMER "Lacrimosa"
    REM COMPOSER ""
    INDEX 00 09:32:57
    INDEX 01 09:33:22
  TRACK 04 AUDIO
    TITLE "Poison"
    PERFORMER "E.C.M."
    REM COMPOSER ""
    INDEX 00 14:28:10
    INDEX 01 14:29:10
  TRACK 05 AUDIO
    TITLE "Dear God"
    PERFORMER "Evils Toy"
    REM COMPOSER ""
    INDEX 00 20:13:72
    INDEX 01 20:14:47
  TRACK 06 AUDIO
    TITLE "Cyberbite"
    PERFORMER "The Fair Sex"
    REM COMPOSER ""
    INDEX 00 25:40:40
    INDEX 01 25:41:45
  TRACK 07 AUDIO
    TITLE "Trail Of Torment"
    PERFORMER "Bionic"
    REM COMPOSER ""
    INDEX 00 30:38:22
    INDEX 01 30:38:27
  TRACK 08 AUDIO
    TITLE "Again"
    PERFORMER "The Frozen Autumn"
    REM COMPOSER ""
    INDEX 00 35:33:27
    INDEX 01 35:34:50
  TRACK 09 AUDIO
    TITLE "Duracel (Maxi Version)"
    PERFORMER "Zero Defects"
    REM COMPOSER ""
    INDEX 00 40:57:55
    INDEX 01 40:58:60
  TRACK 10 AUDIO
    TITLE "Theremin (Club Edit)"
    PERFORMER "Covenant"
    REM COMPOSER ""
    INDEX 00 46:59:30
    INDEX 01 46:59:62
  TRACK 11 AUDIO
    TITLE "Bombed The World"
    PERFORMER "Ghosting"
    REM COMPOSER ""
    INDEX 00 51:31:62
    INDEX 01 51:32:30
  TRACK 12 AUDIO
    TITLE "World Window (Album Version)"
    PERFORMER "Haujobb"
    REM COMPOSER ""
    INDEX 00 57:06:72
    INDEX 01 57:07:57
  TRACK 13 AUDIO
    TITLE "The Factory (Industrial Mix)"
    PERFORMER "Revenge Of Nephthys"
    REM COMPOSER ""
    INDEX 00 62:07:42
    INDEX 01 62:08:32
  TRACK 14 AUDIO
    TITLE "Faith No More (95er Edit)"
    PERFORMER "Cyber Axis"
    REM COMPOSER ""
    INDEX 00 65:38:62
    INDEX 01 65:39:00
  TRACK 15 AUDIO
    TITLE "Everyone Follows (Orgazmix)"
    PERFORMER "Regenerator"
    REM COMPOSER ""
    INDEX 00 70:03:50
    INDEX 01 70:05:02
  TRACK 16 AUDIO
    TITLE "W.o.l.f."
    PERFORMER "Welle: Erdball"
    REM COMPOSER ""
    INDEX 00 73:48:35
    INDEX 01 73:49:12
Код:
foobar2000 1.4 / Dynamic Range Meter 1.1.1
log date: 2020-03-13 12:42:34
--------------------------------------------------------------------------------
Analyzed: Calva Y Nada / We Came To Dance Vol. VII (1)
          Covenant / We Came To Dance Vol. VII (2)
          Cyber Axis / We Came To Dance Vol. VII (3)
--------------------------------------------------------------------------------
DR         Peak         RMS     Duration Track
--------------------------------------------------------------------------------
DR8       -0.67 dB    -9.24 dB      5:07 01-Fernes Leid
DR9       -0.14 dB   -10.68 dB      4:33 10-Theremin (Club Edit)
DR9       -0.07 dB   -11.02 dB      4:26 14-Faith No More (95er Edit)
--------------------------------------------------------------------------------
Number of tracks:  3
Official DR value: DR8
Samplerate:        44100 Hz
Channels:          2
Bits per sample:   16
Bitrate:           1411 kbps
Codec:             PCM
================================================================================
--------------------------------------------------------------------------------
Analyzed: E.C.M. / We Came To Dance Vol. VII (1)
          Evils Toy / We Came To Dance Vol. VII (2)
          Ghosting / We Came To Dance Vol. VII (3)
          Haujobb / We Came To Dance Vol. VII (4)
--------------------------------------------------------------------------------
DR         Peak         RMS     Duration Track
--------------------------------------------------------------------------------
DR7       -0.10 dB    -9.24 dB      5:45 04-Poison
DR8       -0.07 dB    -9.42 dB      5:27 05-Dear God
DR10      -0.03 dB   -11.37 dB      5:35 11-Bombed The World
DR7       -0.41 dB    -9.81 dB      5:01 12-World Window (Album Version)
--------------------------------------------------------------------------------
Number of tracks:  4
Official DR value: DR8
Samplerate:        44100 Hz
Channels:          2
Bits per sample:   16
Bitrate:           1411 kbps
Codec:             PCM
================================================================================
--------------------------------------------------------------------------------
Analyzed: Lacrimosa / We Came To Dance Vol. VII (1)
          Regenerator / We Came To Dance Vol. VII (2)
--------------------------------------------------------------------------------
DR         Peak         RMS     Duration Track
--------------------------------------------------------------------------------
DR9       -0.05 dB   -10.94 dB      4:56 03-Copycat
DR10      -0.06 dB   -11.04 dB      3:44 15-Everyone Follows (Orgazmix)
--------------------------------------------------------------------------------
Number of tracks:  2
Official DR value: DR9
Samplerate:        44100 Hz
Channels:          2
Bits per sample:   16
Bitrate:           1411 kbps
Codec:             PCM
================================================================================
--------------------------------------------------------------------------------
Statistics for: 13-The Factory (Industrial Mix)
Number of samples: 9286284
Duration: 3:31
--------------------------------------------------------------------------------
                 Left              Right
Peak Value:     -0.34 dB   ---     -0.14 dB
Avg RMS:        -9.37 dB   ---     -9.75 dB
DR channel:      7.20 dB   ---      7.96 dB
--------------------------------------------------------------------------------
Official DR Value: DR8
Samplerate:        44100 Hz
Channels:          2
Bits per sample:   16
Bitrate:           1411 kbps
Codec:             PCM
================================================================================
--------------------------------------------------------------------------------
Analyzed: The Fair Sex / We Came To Dance Vol. VII (1)
          The Frozen Autumn / We Came To Dance Vol. VII (2)
          Welle: Erdball / We Came To Dance Vol. VII (3)
--------------------------------------------------------------------------------
DR         Peak         RMS     Duration Track
--------------------------------------------------------------------------------
DR8       -0.12 dB    -9.98 dB      4:57 06-Cyberbite
DR10      -0.14 dB   -12.10 dB      5:24 08-Again
DR8       -0.23 dB   -10.30 dB      3:53 16-W.o.l.f.
--------------------------------------------------------------------------------
Number of tracks:  3
Official DR value: DR9
Samplerate:        44100 Hz
Channels:          2
Bits per sample:   16
Bitrate:           1411 kbps
Codec:             PCM
================================================================================
--------------------------------------------------------------------------------
Analyzed: X Marks The Pedwalk / We Came To Dance Vol. VII (1)
          Zero Defects / We Came To Dance Vol. VII (2)
--------------------------------------------------------------------------------
DR         Peak         RMS     Duration Track
--------------------------------------------------------------------------------
DR8       -0.56 dB   -10.40 dB      4:26 02-Missing Light
DR9       -0.14 dB   -10.90 dB      6:01 09-Duracel (Maxi Version)
--------------------------------------------------------------------------------
Number of tracks:  2
Official DR value: DR9
Samplerate:        44100 Hz
Channels:          2
Bits per sample:   16
Bitrate:           1411 kbps
Codec:             PCM
==============================================================
foobar2000 1.4 / Dynamic Range Meter 1.1.1
log date: 2020-03-13 12:42:33
--------------------------------------------------------------------------------
Statistics for: 07-Trail Of Torment
Number of samples: 13067124
Duration: 4:56
--------------------------------------------------------------------------------
                 Left              Right
Peak Value:     -0.23 dB   ---     -0.23 dB
Avg RMS:       -11.22 dB   ---    -11.31 dB
DR channel:      9.02 dB   ---      9.26 dB
--------------------------------------------------------------------------------
Official DR Value: DR9
Samplerate:        44100 Hz
Channels:          2
Bits per sample:   16
Bitrate:           1411 kbps
Codec:             PCM
==============================================================
Правила, инструкции, FAQ!!!
Торрент  Добавлен [26 июн 2020, 17:53] Скачать торрент Магнет ссылка
Скачать торрент
[ Размер 11.87 КБ / Просмотров 8 ]

Статус
Проверен 
 
Размер  541.91 МБ
Приватный: Нет (DHT включён)
.torrent скачан  0
 


     Отправить личное сообщение
   
Страница 1 из 1
Показать сообщения за:  Поле сортировки  
Начать новую тему Ответить на тему


Сейчас этот форум просматривают: нет зарегистрированных пользователей и гости: 0


Вы не можете начинать темы
Вы не можете отвечать на сообщения
Вы не можете редактировать свои сообщения
Вы не можете удалять свои сообщения
Вы не можете добавлять вложения

Перейти:  
cron