Начать новую тему Ответить на тему
Статистика раздачи
Размер: 315.94 МБ | Добавлен: 26 июн 2020, 17:11 | Скачали: 0
Сидеров: 0  [0 байт/сек]    Личеров: 0  [0 байт/сек]
Пред. тема | След. тема 

Автор
Сообщение

СообщениеДобавлено: 26 июн 2020, 17:11 

Ответить с цитатой 

Cerebral Apoplexy / Cold Heart
Жанр: Industrial, Electro
Страна-производитель диска: Germany
Год издания диска: 2006
Издатель (лейбл): Mental Ulcer Forges
Номер по каталогу: ULC 12
Страна: Germany
Аудио кодек: FLAC (*.flac)
Тип рипа: image+.cue
Битрейт аудио: lossless
Продолжительность: 0:42:28.09
Источник (релизер): CD из личной коллекции.
Наличие сканов в содержимом раздачи: да
Треклист:
01. Cold Heart 3:57
02. Just Live Waves 3:30
03. Silent Assault 3:46
04. Zehn Jahre Lang (Agra Mix) 4:27
05. Don't Trust Me 3:55
06. Es War Mord 2:26
07. The Killing 3:41
08. Zehn Jahre Lang (Original Mix) 3:33
09. The Night 5:08
10. Guilty 3:58
11. The Gift 4:01
Discogs
Код:
Exact Audio Copy V0.99 prebeta 5 from 4. May 2009
Отчёт EAC об извлечении, выполненном 12. января 2011, 9:12
Cerebral Apoplexy / Cold Heart
Дисковод: TSSTcorpCDDVDW TS-L632H   Adapter: 0  ID: 0
Режим чтения                 : Достоверность
Использование точного потока : Да
Отключение кэша аудио        : Да
Использование указателей C2  : Нет
Коррекция смещения при чтении                     : 6
Способность читать области Lead-in и Lead-out     : Нет
Заполнение пропущенных сэмплов тишиной            : Да
Удаление блоков с тишиной в начале и конце        : Нет
При вычислениях CRC использовались нулевые сэмплы : Да
Интерфейс                                         : Встроенный Win32-интерфейс для Win NT/2000
Выходной формат          : Пользовательский кодировщик
Выбранный битрейт        : 1024 kBit/s
Качество                 : Высокий
Добавление ID3-тэга      : Нет
Утилита сжатия           : C:\Program Files\Exact Audio Copy\FLAC\FLAC.EXE
Дополнительные параметры : -6 -V -T "ARTIST=%a" -T "TITLE=%t" -T "ALBUM=%g" -T "DATE=%y" -T "TRACKNUMBER=%n" -T "GENRE=%m" -T "COMMENT=%e" %s -o %d
TOC извлечённого CD
     Трек |   Старт  | Длительность | Начальный сектор | Конечный сектор
    ---------------------------------------------------------------------
       1  |  0:00.00 |    3:57.68   |           0      |      17842
       2  |  3:57.68 |    3:30.22   |       17843      |      33614
       3  |  7:28.15 |    3:46.56   |       33615      |      50620
       4  | 11:14.71 |    4:27.52   |       50621      |      70697
       5  | 15:42.48 |    3:55.21   |       70698      |      88343
       6  | 19:37.69 |    2:26.54   |       88344      |      99347
       7  | 22:04.48 |    3:41.61   |       99348      |     115983
       8  | 25:46.34 |    3:33.05   |      115984      |     131963
       9  | 29:19.39 |    5:08.43   |      131964      |     155106
      10  | 34:28.07 |    3:58.05   |      155107      |     172961
      11  | 38:26.12 |    4:01.72   |      172962      |     191108
Характеристики диапазона извлечения и сообщения об ошибках
Выбранный диапазон
     Имя файла C:\Users\Алексей\Desktop\iPOD\Cerebral Apoplexy - Cold Heart.wav
     Пиковый уровень 100.0 %
     Качество диапазона 100.0 %
     CRC теста 0C6EBA38
     CRC копии 0C6EBA38
     Копирование... OK
Ошибок не произошло
AccurateRip: сводка
Трек  1  точное извлечение (доверие 1)  [2A8ED171]
Трек  2  точное извлечение (доверие 1)  [18D36EC1]
Трек  3  точное извлечение (доверие 1)  [31B1FBA7]
Трек  4  точное извлечение (доверие 1)  [48FE47B9]
Трек  5  точное извлечение (доверие 1)  [3409012A]
Трек  6  точное извлечение (доверие 1)  [7708F49A]
Трек  7  точное извлечение (доверие 1)  [9B4F4E5F]
Трек  8  нет в базе данных
Трек  9  точное извлечение (доверие 1)  [E834A9C8]
Трек 10  точное извлечение (доверие 1)  [D0237801]
Трек 11  точное извлечение (доверие 1)  [7633CE72]
10 трек(и) скопированы точно
 1 трек(и) не содержатся в базе AccurateRip
Некоторые треки не прошли проверку на точность
Конец отчёта
Код:
REM GENRE "Electro Industrial"
REM DATE 2006
REM DISCID 9209F40B
REM COMMENT "ExactAudioCopy v0.99pb5"
PERFORMER "Cerebral Apoplexy"
TITLE "Cold Heart"
FILE "Cerebral Apoplexy - Cold Heart.flac" WAVE
  TRACK 01 AUDIO
    TITLE "Cold Heart"
    PERFORMER "Cerebral Apoplexy"
    INDEX 01 00:00:00
  TRACK 02 AUDIO
    TITLE "Just Like Waves"
    PERFORMER "Cerebral Apoplexy"
    INDEX 01 03:57:68
  TRACK 03 AUDIO
    TITLE "Silent Assault"
    PERFORMER "Cerebral Apoplexy"
    INDEX 01 07:28:15
  TRACK 04 AUDIO
    TITLE "Zehn Jahre Lang (Agra Mix)"
    PERFORMER "Cerebral Apoplexy"
    INDEX 01 11:14:71
  TRACK 05 AUDIO
    TITLE "Don't Trust Me"
    PERFORMER "Cerebral Apoplexy"
    INDEX 01 15:42:48
  TRACK 06 AUDIO
    TITLE "Es War Mord"
    PERFORMER "Cerebral Apoplexy"
    INDEX 01 19:37:69
  TRACK 07 AUDIO
    TITLE "The Killing"
    PERFORMER "Cerebral Apoplexy"
    INDEX 01 22:04:48
  TRACK 08 AUDIO
    TITLE "Zehn Jahre Lang (Original Mix)"
    PERFORMER "Cerebral Apoplexy"
    INDEX 01 25:46:34
  TRACK 09 AUDIO
    TITLE "The Night"
    PERFORMER "Cerebral Apoplexy"
    INDEX 01 29:19:39
  TRACK 10 AUDIO
    TITLE "Guilty"
    PERFORMER "Cerebral Apoplexy"
    INDEX 01 34:28:07
  TRACK 11 AUDIO
    TITLE "The Gift"
    PERFORMER "Cerebral Apoplexy"
    INDEX 01 38:26:12
Код:
[url=https://fastpic.ru/view/4/2011/0129/545ce1f8176ed80289276a2c65d6d578.jpg.html][img]http://i4.fastpic.ru/thumb/2011/0129/78/545ce1f8176ed80289276a2c65d6d578.jpeg[/img][/url][url=https://fastpic.ru/view/4/2011/0129/4eaad918c9ba624adc64b2b22b37bc75.jpg.html][img]http://i4.fastpic.ru/thumb/2011/0129/75/4eaad918c9ba624adc64b2b22b37bc75.jpeg[/img][/url][url=https://fastpic.ru/view/4/2011/0129/38c0cbce5cc30238bec3fc90fab67794.jpg.html][img]http://i4.fastpic.ru/thumb/2011/0129/94/38c0cbce5cc30238bec3fc90fab67794.jpeg[/img][/url][url=https://fastpic.ru/view/4/2011/0129/7d25a0274b93c2edfe9674b21f8206c4.jpg.html][img]http://i4.fastpic.ru/thumb/2011/0129/c4/7d25a0274b93c2edfe9674b21f8206c4.jpeg[/img][/url]
Artwork, Mastered, Producer By Rudy Ratzinger :wumpscut:

Выражаю благодарность kergarn`у за HQ scans!
Правила, инструкции, FAQ!!!
Торрент  Добавлен [26 июн 2020, 17:11] Скачать торрент Магнет ссылка
Скачать торрент
[ Размер 13.54 КБ / Просмотров 10 ]

Статус
Проверен 
 
Размер  315.94 МБ
Приватный: Нет (DHT включён)
.torrent скачан  0
 


     Отправить личное сообщение
   
Страница 1 из 1
Показать сообщения за:  Поле сортировки  
Начать новую тему Ответить на тему


Сейчас этот форум просматривают: нет зарегистрированных пользователей и гости: 0


Вы не можете начинать темы
Вы не можете отвечать на сообщения
Вы не можете редактировать свои сообщения
Вы не можете удалять свои сообщения
Вы не можете добавлять вложения

Перейти:  
cron