Начать новую тему Ответить на тему
Статистика раздачи
Размер: 412.91 МБ | Добавлен: 26 июн 2020, 17:33 | Скачали: 0
Сидеров: 0  [0 байт/сек]    Личеров: 0  [0 байт/сек]
Пред. тема | След. тема 

Автор
Сообщение

СообщениеДобавлено: 26 июн 2020, 17:33 

Ответить с цитатой 

Zentriert ins Antlitz - Mutilate
Жанр: Industrial, Electro, Ambient
Год выпуска диска: 2005
Производитель диска: Germany
Аудио кодек: FLAC
Тип рипа: image+.cue
Битрейт аудио: lossless
Продолжительность: 66:07
Трэклист:
1. Come In 1:04
2. Off (Line) 4:20
3. My Enemy Inside 1:43
4. So Fucking Sick 4:22
5. Flesh & Flowers 2:03
6. Unconscious 5:06
7. 6 Years 6:38
8. Defense (Part 1) 4:39
9. Deep Dawn Resonance 7:40
10. 1000 Junkies 6:56
11. Transmission 4:35
12. Defense (Part 2) 6:11
13. Mutilate 5:57
14. Geschaeftsfrau 4:53
Доп. информация:
Label: COP International
Catalog#: COP CD088
Engineer, Mixed By - Zentriert ins Antlitz
Mastered By, Mixed By, Artwork By [Layout] - M. Friedrich
Producer - Hutzel , Schlitzer
Producer, Performer - H. Meuler (tracks: 2, 4, 14) , J. Warkentin (tracks: 1, 10, 14) , M. Friedrich
Technician [Electronic Mutiliation], Sampler, Synthesizer, Programmed By - H. Meuler , J. Warkentin , M. Friedrich
Немецкий коллектив с совершенно ужасным названием Zentriert Ins Antlitz вновь радует своих верных поклонников. Но прежде чем рукоплескать содержимому их последнего альбома “Mutilate”, я взываю к ним: смените название! Да, мы с трудом, но сумели научиться выговаривать страшное einstuerzende neubauten, но сколько лет уйдет на то, чтобы приучить язык поворачиваться в соответствии со звуками слов zentriert ins antlitz? А ведь придя в магазин и держа в пределах тела твердое желание купить диск ZIA, наверняка мы застанем себя в такой ситуации. Полутемное помещение, тускло мерцают выжившие лампы дневного света, между ног метнулся ошалевший от голода таракан. Полки ломятся от старости, подперты никому не нужными раритетами и отчаянно демонстрируют свежий глянцевый релиз каких-нибудь Apoptygma Berzerk. Мы в магазине, специализирующемся на продаже компакт-дисков, винил-дисков, кассет-дисков и журнал-дисков. Пыльный воздух пронизывают звуки последнего хита Marilyn Manson, и мы выходим тет-а-тет с продавцам, мечтательно дремлющим над раскрытым постером. Встрепенувшись, он приветливо спрашивает: «Чего надо?», ловко задвигая выглядывавший из под постера порно-комикс. «Я хотел бы купить августовский альбом Зенсринсантлиз» - выдаем мы только что два дня назад заученную фразу. «Кого, блин?» - вежливо переспрашивает продавец, оценив наш IQ по десятибалльной шкале. «Зенсанринзтилз» - в точности, как раньше, повторяем мы, оценив образование продавца, как нереализованную мечту. «Зантранслитз?» - переспрашивает продавец, проникнувшись на секунду энтузиазмом. «Нет, Зинтрутминзматлиз… Зынуиертансантлз… Ладно, дайте мне вон то», пытаемся мы спасти ситуацию, от отчаяния попадая пальцем в небо диска KLF “Chill Out”. А теперь все же давайте вернемся обратно к музыке. Не изменив себе ни на йоту, трио M. Friedrich, J Warkentin и H.Meuler производят на свет (кто-то скажет – Божий, кто-то – солнечный) инструментальную музыку высшего качества и сложной фактуры. Исходным материалом служат клубные и расслабленные биты, сложные колоритные фоны, тонны технических мелочей, немецкие и английские обрывки фраз и заметное увлечение наследием Synaesthesia. Zentriert Ins Antlitz с легкостью манипулируют современными тенденциями, но удивительным образом игнорируют танцевальный спектр, чем радуют душу, засевшую в остатках тела. Отличный объемный звук, интеллигентные структуры, темная, но не давящая атмосфера, и это непрерывно в течение шестидесяти шести минут! “Mutilate” хочется слушать снова и снова, и хотя он все же не шедевр, это качественный и вдохновляющий релиз, который я с удовольствием рекомендую.
Lic http://industrialreviews.ru/reviews/main.php?mode=review&id=4158
Код:
Exact Audio Copy V0.99 prebeta 4 from 23. January 2008
Отчёт EAC об извлечении, выполненном 6. января 2009, 11:08
Zentriert Ins Antlitz / Mutilate
Дисковод: PIONEER DVD-RW  DVR-109   Adapter: 1  ID: 2
Режим чтения                 : Достоверность
Использование точного потока : Да
Отключение кэша аудио        : Да
Использование указателей C2  : Нет
Коррекция смещения при чтении                     : 48
Способность читать области Lead-in и Lead-out     : Нет
Заполнение пропущенных сэмплов тишиной            : Да
Удаление блоков с тишиной в начале и конце        : Нет
При вычислениях CRC использовались нулевые сэмплы : Да
Интерфейс                                         : Встроенный Win32-интерфейс для Win NT/2000
Выходной формат          : Пользовательский кодировщик
Выбранный битрейт        : 1024 kBit/s
Качество                 : Высокий
Добавление ID3-тэга      : Нет
Утилита сжатия           : C:\Program Files\Exact Audio Copy\Flac\flac.exe
Дополнительные параметры : -8 -V -T "ARTIST=%a" -T "TITLE=%t" -T "ALBUM=%g" -T "DATE=%y" -T "TRACKNUMBER=%n" -T "GENRE=%m" -T "COMMENT=EAC FLAC -8" %s
TOC извлечённого CD
     Трек |   Старт  | Длительность | Начальный сектор | Конечный сектор
    ---------------------------------------------------------------------
       1  |  0:00.00 |    1:03.42   |           0      |       4766
       2  |  1:03.42 |    4:20.28   |        4767      |      24294
       3  |  5:23.70 |    1:42.38   |       24295      |      31982
       4  |  7:06.33 |    4:22.19   |       31983      |      51651
       5  | 11:28.52 |    2:03.14   |       51652      |      60890
       6  | 13:31.66 |    5:06.14   |       60891      |      83854
       7  | 18:38.05 |    6:37.71   |       83855      |     113700
       8  | 25:16.01 |    4:38.52   |      113701      |     134602
       9  | 29:54.53 |    7:40.02   |      134603      |     169104
      10  | 37:34.55 |    6:56.24   |      169105      |     200328
      11  | 44:31.04 |    4:35.09   |      200329      |     220962
      12  | 49:06.13 |    6:10.68   |      220963      |     248780
      13  | 55:17.06 |    5:56.46   |      248781      |     275526
      14  | 61:13.52 |    4:52.35   |      275527      |     297461
Характеристики диапазона извлечения и сообщения об ошибках
Выбранный диапазон
     Имя файла D:\EAC\Zentriert Ins Antlitz - Mutilate.wav
     Пиковый уровень 100.0 %
     Качество диапазона 99.9 %
     CRC копии B690CA07
     Копирование... OK
Ошибок не произошло
Конец отчёта
Zentriert Ins Antlitz - Prozium
Правила, инструкции, FAQ!!!
Торрент  Добавлен [26 июн 2020, 17:33] Скачать торрент Магнет ссылка
Скачать торрент
[ Размер 16.83 КБ / Просмотров 11 ]

Статус
Проверен 
 
Размер  412.91 МБ
Приватный: Нет (DHT включён)
.torrent скачан  0
 


     Отправить личное сообщение
   
Страница 1 из 1
Показать сообщения за:  Поле сортировки  
Начать новую тему Ответить на тему


Сейчас этот форум просматривают: нет зарегистрированных пользователей и гости: 0


Вы не можете начинать темы
Вы не можете отвечать на сообщения
Вы не можете редактировать свои сообщения
Вы не можете удалять свои сообщения
Вы не можете добавлять вложения

Перейти:  
cron