Начать новую тему Ответить на тему
Статистика раздачи
Размер: 158.48 МБ | Добавлен: 26 июн 2020, 20:22 | Скачали: 0
Сидеров: 0  [0 байт/сек]    Личеров: 0  [0 байт/сек]
Пред. тема | След. тема 

Автор
Сообщение

СообщениеДобавлено: 26 июн 2020, 20:22 

Ответить с цитатой 

Systemshock - Cheater




• Жанр: Industrial | Electro | Alternative
• Носитель: WEB
• Год издания: 2013
• Издатель (лейбл) skyQode
• Номер по каталогу: SQD06
• Страна-производитель релиза: Germany | Russia
• Страна исполнителя (группы): Russia
• Аудиокодек: FLAC (*.flac)
• Тип рипа: tracks
• Продолжительность: 00:19:59
• Источник (релизер):NTDMMANIAC ®
• WEB релиз: bandcamp
• Наличие сканов: front

01 - Cheater (Video Edit) (00:03:55)
02 - Wake Up (Single Edit) (00:04:44)
03 - Cheater (RuleBook Mix By Outsight) (00:05:12)
04 - Cheater (00:06:07)

foobar2000 1.2.5 / Замер динамического диапазона (DR) 1.1.1
Дата отчёта: 2018-05-01 21:30:11
--------------------------------------------------------------------------------
Анализ: Systemshock feat. Juanita / Cheater EP (1)
Systemshock / Cheater EP (2-4)
--------------------------------------------------------------------------------
DR Пики RMS Продолжительность трека
--------------------------------------------------------------------------------
DR5 0.00 дБ -7.36 дБ 6:07 04-Cheater
DR5 0.00 дБ -6.09 дБ 3:55 01-Cheater (Video Edit)
DR5 0.00 дБ -6.62 дБ 4:44 02-Wake Up (Single Edit)
DR5 0.00 дБ -6.52 дБ 5:13 03-Cheater (RuleBook Mix By Outsight)
--------------------------------------------------------------------------------
Количество треков: 4
Реальные значения DR: DR5
Частота: 44100 Гц
Каналов: 2
Разрядность: 16
Битрейт: 1140 кбит/с
Кодек: FLAC
================================================================================

Код:
-----------------------
DON'T MODIFY THIS FILE
-----------------------
PERFORMER: auCDtect Task Manager, ver. 1.6.0 RC1 build 1.6.0.1
Copyright (c) 2008-2010 y-soft. All rights reserved
[url=http://y-soft.org]http://y-soft.org[/url]
ANALYZER: auCDtect: CD records authenticity detector, version 0.8.2
Copyright (c) 2004 Oleg Berngardt. All rights reserved.
Copyright (c) 2004 Alexander Djourik. All rights reserved.
FILE: 04 - Cheater.flac
  Size: 47775196 Hash: 69518E31D2AA4A6658522B11EB5F82CF Accuracy: -m0
  Conclusion: CDDA 99%
  Signature: 978CBF99E59B68E57C7373DA61F74D36C760828B
FILE: 03 - Cheater (RuleBook Mix By Outsight).flac
  Size: 44841517 Hash: 42A8127572FE69BA1C0B5D2CA4CB5509 Accuracy: -m0
  Conclusion: CDDA 100%
  Signature: 5A06BADDC9FB87E1CBDD69ECA70C44E575D8D5C3
FILE: 02 - Wake Up (Single Edit).flac
  Size: 38404904 Hash: 71668E1CB720125BB85D9238A29957CF Accuracy: -m0
  Conclusion: CDDA 100%
  Signature: 26AC9ABC6752850117C81941A71B10429808452F
FILE: 01 - Cheater (Video Edit).flac
  Size: 34848157 Hash: 518B3FE8FECE70A7BA48939DFE8E7457 Accuracy: -m0
  Conclusion: CDDA 100%
  Signature: CB4AE9DF1CAEB7DA07CE419A1F192051C92D7DF2


Правила, инструкции, FAQ!!!
Торрент  Добавлен [26 июн 2020, 20:22] Скачать торрент Магнет ссылка
Скачать торрент
[ Размер 13.11 КБ / Просмотров 10 ]

Статус
Проверен 
 
Размер  158.48 МБ
Приватный: Нет (DHT включён)
.torrent скачан  0
 


     Отправить личное сообщение
   
Страница 1 из 1
Показать сообщения за:  Поле сортировки  
Начать новую тему Ответить на тему


Сейчас этот форум просматривают: нет зарегистрированных пользователей и гости: 0


Вы не можете начинать темы
Вы не можете отвечать на сообщения
Вы не можете редактировать свои сообщения
Вы не можете удалять свои сообщения
Вы не можете добавлять вложения

Перейти:  
cron