Начать новую тему Ответить на тему
Статистика раздачи
Размер: 420.03 МБ | Добавлен: 26 июн 2020, 17:04 | Скачали: 0
Сидеров: 0  [0 байт/сек]    Личеров: 0  [0 байт/сек]
Пред. тема | След. тема 

Автор
Сообщение

СообщениеДобавлено: 26 июн 2020, 17:04 

Ответить с цитатой 

Allied Vision - O.S. Bandwidth
Жанр: Industrial, Electro
Год выпуска диска: 2003
Производитель диска: Intracraneal Possession, Spain
Аудио кодек: FLAC
Тип рипа: image+.cue
Битрейт аудио: lossless
Продолжительность: 1:06:50.60
Треклист:
01. Clockwork Life 5:59
02. Selfthinking 5:50
03. Oxide Paradise 7:40
04. Coaxial Hardware 6:28
05. Xenon Viewer 6:36
06. Vivid Escape 6:48
07. Aftermath 6:08
08. Deliver Us From Evil 5:33
09. Alienate 6:30
Доп. информация: На оригинальном диске присутствует видео трек 10. Coaxial Hardware
В ДАННОЙ РАЗДАЧЕ ОН ОТСУТСТВУЕТ!
CD из личной коллекции.
Код:
Exact Audio Copy V0.99 prebeta 5 from 4. May 2009
Отчёт EAC об извлечении, выполненном 26. августа 2010, 18:55
Allied Vision / O.S.Bandwidth
Дисковод: TSSTcorpCDDVDW TS-L632H   Adapter: 0  ID: 0
Режим чтения                 : Достоверность
Использование точного потока : Да
Отключение кэша аудио        : Да
Использование указателей C2  : Нет
Коррекция смещения при чтении                     : 6
Способность читать области Lead-in и Lead-out     : Нет
Заполнение пропущенных сэмплов тишиной            : Да
Удаление блоков с тишиной в начале и конце        : Нет
При вычислениях CRC использовались нулевые сэмплы : Да
Интерфейс                                         : Встроенный Win32-интерфейс для Win NT/2000
Выходной формат          : Пользовательский кодировщик
Выбранный битрейт        : 1024 kBit/s
Качество                 : Высокий
Добавление ID3-тэга      : Нет
Утилита сжатия           : C:\Program Files\Exact Audio Copy\FLAC\FLAC.EXE
Дополнительные параметры : -6 -V -T "ARTIST=%a" -T "TITLE=%t" -T "ALBUM=%g" -T "DATE=%y" -T "TRACKNUMBER=%n" -T "GENRE=%m" -T "COMMENT=%e" %s -o %d
TOC извлечённого CD
     Трек |   Старт  | Длительность | Начальный сектор | Конечный сектор
    ---------------------------------------------------------------------
       1  |  0:00.00 |    5:59.53   |           0      |      26977
       2  |  5:59.53 |    5:50.65   |       26978      |      53292
       3  | 11:50.43 |    7:40.03   |       53293      |      87795
       4  | 19:30.46 |    6:28.28   |       87796      |     116923
       5  | 25:58.74 |    6:36.16   |      116924      |     146639
       6  | 32:35.15 |    6:48.23   |      146640      |     177262
       7  | 39:23.38 |    6:08.36   |      177263      |     204898
       8  | 45:31.74 |    5:33.65   |      204899      |     229938
       9  | 51:05.64 |    6:30.58   |      229939      |     259246
      10  | 60:08.47 |    9:14.13   |      270647      |     312209
Характеристики диапазона извлечения и сообщения об ошибках
Выбранный диапазон
     Имя файла C:\Users\Алексей\Desktop\iPOD\Allied Vision - O.S.Bandwidth.wav
     Пиковый уровень 98.8 %
     Качество диапазона 100.0 %
     CRC теста 6D7F6FCF
     CRC копии 6D7F6FCF
     Копирование... OK
Ошибок не произошло
AccurateRip: сводка
Трек  1  точное извлечение (доверие 1)  [925CCB73]
Трек  2  точное извлечение (доверие 1)  [4F352B64]
Трек  3  точное извлечение (доверие 1)  [3B19DD50]
Трек  4  точное извлечение (доверие 1)  [32E34050]
Трек  5  точное извлечение (доверие 1)  [CAC44BA8]
Трек  6  точное извлечение (доверие 1)  [FF12D4BF]
Трек  7  точное извлечение (доверие 1)  [FFF322F7]
Трек  8  точное извлечение (доверие 1)  [0BF6AE92]
Трек  9  точное извлечение (доверие 1)  [BEF9B7D7]
Все треки извлечены точно
Конец отчёта
Код:
REM GENRE Industrial
REM DATE 2003
REM DISCID 7C10420A
REM COMMENT "ExactAudioCopy v0.99pb5"
PERFORMER "Allied Vision"
TITLE "O.S.Bandwidth"
FILE "Allied Vision - O.S.Bandwidth.flac" WAVE
  TRACK 01 AUDIO
    TITLE "Clockwork Life"
    PERFORMER "Allied Vision"
    INDEX 01 00:00:00
  TRACK 02 AUDIO
    TITLE "Selfthinking"
    PERFORMER "Allied Vision"
    INDEX 00 05:57:53
    INDEX 01 05:59:53
  TRACK 03 AUDIO
    TITLE "Oxide Paradise"
    PERFORMER "Allied Vision"
    INDEX 00 11:48:43
    INDEX 01 11:50:43
  TRACK 04 AUDIO
    TITLE "Coaxial Hardware"
    PERFORMER "Allied Vision"
    INDEX 00 19:28:46
    INDEX 01 19:30:46
  TRACK 05 AUDIO
    TITLE "Xenon Viewer"
    PERFORMER "Allied Vision"
    INDEX 00 25:56:74
    INDEX 01 25:58:74
  TRACK 06 AUDIO
    TITLE "Vivid Escape"
    PERFORMER "Allied Vision"
    INDEX 00 32:33:15
    INDEX 01 32:35:15
  TRACK 07 AUDIO
    TITLE "Aftermath"
    PERFORMER "Allied Vision"
    INDEX 00 39:21:38
    INDEX 01 39:23:38
  TRACK 08 AUDIO
    TITLE "Deliver Us From Evil"
    PERFORMER "Allied Vision"
    INDEX 00 45:29:74
    INDEX 01 45:31:74
  TRACK 09 AUDIO
    TITLE "Alienate"
    PERFORMER "Allied Vision"
    INDEX 00 51:03:64
    INDEX 01 51:05:64
Правила, инструкции, FAQ!!!
Торрент  Добавлен [26 июн 2020, 17:04] Скачать торрент Магнет ссылка
Скачать торрент
[ Размер 17.07 КБ / Просмотров 4 ]

Статус
Проверен 
 
Размер  420.03 МБ
Приватный: Нет (DHT включён)
.torrent скачан  0
 


     Отправить личное сообщение
   
Страница 1 из 1
Показать сообщения за:  Поле сортировки  
Начать новую тему Ответить на тему


Сейчас этот форум просматривают: нет зарегистрированных пользователей и гости: 0


Вы не можете начинать темы
Вы не можете отвечать на сообщения
Вы не можете редактировать свои сообщения
Вы не можете удалять свои сообщения
Вы не можете добавлять вложения

Перейти:  
cron
cron