Начать новую тему Ответить на тему
Статистика раздачи
Размер: 360.12 МБ | Добавлен: 26 июн 2020, 21:13 | Скачали: 0
Сидеров: 0  [0 байт/сек]    Личеров: 0  [0 байт/сек]
Пред. тема | След. тема 

Автор
Сообщение

СообщениеДобавлено: 26 июн 2020, 21:13 

Ответить с цитатой 

Coptic Rain - Clarion's End

Жанр: Industrial / Electro / Aggro-Industrial
Год выпуска диска: 1996
Производитель диска: Germany
Аудио кодек: APE
Тип рипа: image+.cue
Битрейт аудио: lossless
Продолжительность: 49:13
Трэклист:
1 The Haunt (4:52)
2 Devil In Disguise (4:28)
3 In To The Sun (4:09)
4 And All I Loved (6:27)
5 Rejoice (3:40)
6 Selvas (5:01)
7 Midgard (5:12)
8 Cortex Wave (4:21)
9 Scanner (4:08)
10 Slepnir (2:18)
11 Even Closer (4:34)
Доп. информация: Dynamica; DY 22-2
Код:
Exact Audio Copy V0.99 prebeta 4 from 23. January 2008
EAC extraction logfile from 4. December 2008, 15:40
Coptic Rain / Clarion's End
Used drive  : TEAC    DV-W520GS   Adapter: 5  ID: 0
Read mode               : Secure
Utilize accurate stream : Yes
Defeat audio cache      : Yes
Make use of C2 pointers : No
Read offset correction                      : 6
Overread into Lead-In and Lead-Out          : No
Fill up missing offset samples with silence : Yes
Delete leading and trailing silent blocks   : No
Null samples used in CRC calculations       : Yes
Used interface                              : Installed external ASPI interface
Used output format : Internal WAV Routines
Sample format      : 44.100 Hz; 16 Bit; Stereo
TOC of the extracted CD
     Track |   Start  |  Length  | Start sector | End sector
    ---------------------------------------------------------
        1  |  0:00.00 |  4:52.62 |         0  |       21961
        2  |  4:52.62 |  4:28.00 |     21962  |       42061
        3  |  9:20.62 |  4:09.25 |     42062  |       60761
        4  | 13:30.12 |  6:27.00 |     60762  |       89786
        5  | 19:57.12 |  3:40.00 |     89787  |      106286
        6  | 23:37.12 |  5:01.00 |    106287  |      128861
        7  | 28:38.12 |  5:12.50 |    128862  |      152311
        8  | 33:50.62 |  4:21.50 |    152312  |      171936
        9  | 38:12.37 |  4:08.50 |    171937  |      190586
       10  | 42:21.12 |  2:18.50 |    190587  |      200986
       11  | 44:39.62 |  4:34.07 |    200987  |      221543
Range status and errors
Selected range
   Filename J:\Coptic Rain - Clarion's End\CDImage.wav
   Peak level 97.2 %
   Range quality 100.0 %
   Test CRC BAD9C6B7
   Copy CRC BAD9C6B7
   Copy OK
No errors occurred
AccurateRip summary
Track  1  accurately ripped (confidence 2)  [7C68CCF1]
Track  2  accurately ripped (confidence 2)  [9CF01766]
Track  3  accurately ripped (confidence 2)  [45823105]
Track  4  accurately ripped (confidence 2)  [7BA80F78]
Track  5  accurately ripped (confidence 2)  [D28AD46E]
Track  6  accurately ripped (confidence 2)  [1C754E3C]
Track  7  accurately ripped (confidence 2)  [B0C30638]
Track  8  accurately ripped (confidence 2)  [A951F8F1]
Track  9  accurately ripped (confidence 2)  [3AFCD722]
Track 10  accurately ripped (confidence 2)  [4D251B3D]
Track 11  accurately ripped (confidence 2)  [56F2B82B]
All tracks accurately ripped
End of status report
Код:
AUDIOCHECKER v2.0 beta (build 457) - by Dester - opdester@freemail.hu
~~~~~~~~~~~~~~~~~~~~~~~~~~~~~~~~~~
-=== DO NOT EDIT THIS FILE! ===-
Path: ...\Coptic Rain - Clarion's End
01 -=- CDImage.wav -=- CDDA (100%)
190127764
Правила, инструкции, FAQ!!!
Торрент  Добавлен [26 июн 2020, 21:13] Скачать торрент Магнет ссылка
Скачать торрент
[ Размер 14.94 КБ / Просмотров 10 ]

Статус
Проверен 
 
Размер  360.12 МБ
Приватный: Нет (DHT включён)
.torrent скачан  0
 


     Отправить личное сообщение
   
Страница 1 из 1
Показать сообщения за:  Поле сортировки  
Начать новую тему Ответить на тему


Сейчас этот форум просматривают: нет зарегистрированных пользователей и гости: 0


Вы не можете начинать темы
Вы не можете отвечать на сообщения
Вы не можете редактировать свои сообщения
Вы не можете удалять свои сообщения
Вы не можете добавлять вложения

Перейти:  
cron