Начать новую тему Ответить на тему
Статистика раздачи
Размер: 521.3 МБ | Добавлен: 26 июн 2020, 21:07 | Скачали: 0
Сидеров: 0  [0 байт/сек]    Личеров: 0  [0 байт/сек]
Пред. тема | След. тема 

Автор
Сообщение

СообщениеДобавлено: 26 июн 2020, 21:07 

Ответить с цитатой 

Abscess - Punishment & Crippled Reality
Жанр: Industrial ,Electro
Год выпуска диска: 1999
Производитель диска: Германия
Аудио кодек: FLAC
Тип рипа: tracks+.cue
Битрейт аудио: lossless
Трэклист:
01 Triumph (4:01)
02 Thrillseeker (4:06)
03 Calm Down (5:22)
04 Prophets Of The Sun (10:09)
05 Dying Culture (6:01)
06 Marvelous Dreams (4:23)
07 Rescue Me (6:55)
08 Pendulum (4:14)
09 13 Minutes Of Life (13:09)
10 Killingtime (4:56)
11 Schwarze Welten (7:16)
Код:
Exact Audio Copy V0.99 prebeta 4 from 23. January 2008
EAC extraction logfile from 18. September 2008, 16:31
Abscess / Punishment & Crippled Reality
Used drive  : TSSTcorpDVD+-RW TS-H653B   Adapter: 1  ID: 0
Read mode               : Secure
Utilize accurate stream : Yes
Defeat audio cache      : Yes
Make use of C2 pointers : No
Read offset correction                      : 6
Overread into Lead-In and Lead-Out          : No
Fill up missing offset samples with silence : Yes
Delete leading and trailing silent blocks   : No
Null samples used in CRC calculations       : Yes
Used interface                              : Installed external ASPI interface
Gap handling                                : Appended to previous track
Used output format              : User Defined Encoder
Selected bitrate                : 192 kBit/s
Quality                         : High
Add ID3 tag                     : No
Command line compressor         : C:\Program Files\Exact Audio Copy\Flac\flac.exe
Additional command line options : -V -8 -T "artist=%a" -T "title=%t" -T "album=%g" -T "date=%y" -T "tracknumber=%n" -T "genre=%m" %s
TOC of the extracted CD
     Track |   Start  |  Length  | Start sector | End sector
    ---------------------------------------------------------
        1  |  0:00.00 |  4:01.67 |         0    |    18141
        2  |  4:01.67 |  4:06.48 |     18142    |    36639
        3  |  8:08.40 |  5:22.54 |     36640    |    60843
        4  | 13:31.19 | 10:09.17 |     60844    |   106535
        5  | 23:40.36 |  6:01.65 |    106536    |   133675
        6  | 29:42.26 |  4:23.12 |    133676    |   153412
        7  | 34:05.38 |  6:55.22 |    153413    |   184559
        8  | 41:00.60 |  4:14.65 |    184560    |   203674
        9  | 45:15.50 | 13:09.52 |    203675    |   262901
       10  | 58:25.27 |  4:56.58 |    262902    |   285159
       11  | 63:22.10 |  7:16.09 |    285160    |   317868
Track  1
     Filename C:\A\Abscess - Punishment & Crippled Reality [flac]\01 - Triumph.wav
     Pre-gap length  0:00:02.00
     Peak level 90.9 %
     Track quality 100.0 %
     Test CRC D06D55A3
     Copy CRC D06D55A3
     Track not present in AccurateRip database
     Copy OK
Track  2
     Filename C:\A\Abscess - Punishment & Crippled Reality [flac]\02 - Thrillseeker.wav
     Pre-gap length  0:00:02.00
     Peak level 93.1 %
     Track quality 100.0 %
     Test CRC B9B52CE4
     Copy CRC B9B52CE4
     Track not present in AccurateRip database
     Copy OK
Track  3
     Filename C:\A\Abscess - Punishment & Crippled Reality [flac]\03 - Calm Down.wav
     Pre-gap length  0:00:01.98
     Peak level 98.3 %
     Track quality 100.0 %
     Test CRC 96330F5B
     Copy CRC 96330F5B
     Track not present in AccurateRip database
     Copy OK
Track  4
     Filename C:\A\Abscess - Punishment & Crippled Reality [flac]\04 - Prophets Of The Sun.wav
     Pre-gap length  0:00:01.96
     Peak level 96.3 %
     Track quality 100.0 %
     Test CRC 94525A30
     Copy CRC 94525A30
     Track not present in AccurateRip database
     Copy OK
Track  5
     Filename C:\A\Abscess - Punishment & Crippled Reality [flac]\05 - Dying Culture.wav
     Pre-gap length  0:00:01.92
     Peak level 93.8 %
     Track quality 100.0 %
     Test CRC 4BED0698
     Copy CRC 4BED0698
     Track not present in AccurateRip database
     Copy OK
Track  6
     Filename C:\A\Abscess - Punishment & Crippled Reality [flac]\06 - Marvelous Dreams.wav
     Pre-gap length  0:00:02.00
     Peak level 96.5 %
     Track quality 100.0 %
     Test CRC 19E5BFB8
     Copy CRC 19E5BFB8
     Track not present in AccurateRip database
     Copy OK
Track  7
     Filename C:\A\Abscess - Punishment & Crippled Reality [flac]\07 - Rescue Me.wav
     Pre-gap length  0:00:01.93
     Peak level 93.8 %
     Track quality 100.0 %
     Test CRC AD49B403
     Copy CRC AD49B403
     Track not present in AccurateRip database
     Copy OK
Track  8
     Filename C:\A\Abscess - Punishment & Crippled Reality [flac]\08 - Pendulum.wav
     Pre-gap length  0:00:02.00
     Peak level 99.4 %
     Track quality 100.0 %
     Test CRC 373C0FD2
     Copy CRC 373C0FD2
     Track not present in AccurateRip database
     Copy OK
Track  9
     Filename C:\A\Abscess - Punishment & Crippled Reality [flac]\09 - 13 Minutes Of Life.wav
     Pre-gap length  0:00:01.96
     Peak level 98.8 %
     Track quality 100.0 %
     Test CRC A6FE34E5
     Copy CRC A6FE34E5
     Track not present in AccurateRip database
     Copy OK
Track 10
     Filename C:\A\Abscess - Punishment & Crippled Reality [flac]\10 - Killing Time.wav
     Pre-gap length  0:00:01.94
     Peak level 74.9 %
     Track quality 100.0 %
     Test CRC 9C825B20
     Copy CRC 9C825B20
     Track not present in AccurateRip database
     Copy OK
Track 11
     Filename C:\A\Abscess - Punishment & Crippled Reality [flac]\11 - Schwarze Welten.wav
     Pre-gap length  0:00:02.00
     Peak level 90.9 %
     Track quality 100.0 %
     Test CRC 55AF57B7
     Copy CRC 55AF57B7
     Track not present in AccurateRip database
     Copy OK
None of the tracks are present in the AccurateRip database
No errors occurred
End of status report
Jan Bicker и Sunny Schramm, нельзя считать новичками на сцене. Команда существует с 1993 года, выпустила на лейбле Glasnost Records два неплохих диска, "In Your Mind" (1995) и "Journey" (1996), успела заиметь репутацию солидной электробанды, а также завоевала симпатии фэнов EBM в Германии, Голландии, Франции и Бельгии. Полагаем, что со своим новым релизом "Punishment And Crippled Reality" Abscess не оставят равнодушными и заокеанских поклонников жесткого электронного саунда и, кроме того, поднимутся на новую ступеньку в своей тернистой карьере андерграундных музыкантов. Думаем, что среди отечественных "фриков" также найдутся компетентные люди, которые смогут по достоинству оценить свежеиспеченные композиции команды. Наше же мнение о третьем альбоме музыкантов очень позитивное, и мы с оптимизмом смотрим в настоящее и будущее этого талантливого коллектива. Музыкально группа уже сегодня почти на равных может конкурировать с такими классными коллективами сцены, как In Strict Confidence и Project Pitchfork, но если ребята продолжат прогрессировать в таком же темпе, то кто знает, может быть, вскоре они достигнут уровня Front Line Assembly или Pygmy Children.
Альбом Abscess "Punishment And Crippled Reality" состоит из 11 электронных композиций, совершенно разных по настроению и ритму. Как суровая обвинительная речь звучит открывающий альбом трек "Triumph". Масштабная и цельная жесткая электровещь с великолепно прописанными битами, басами и интересными сэмплами поведает вам о слабости и жадности, глупости и угодничестве одних людей, которые способствуют вознесению и господству других. Далее следует дэнс–номер "Thrillersee-ker", который припечатает к танцполу многих фэнов электроиндустриального EBM. Избежавший тупой агрессии и злобы трек имеет острые иголки и когти, а также соответствующий им текст, как, например, следующая строчка: "I would rather be prince in hell, than to be a slave in your heaven". Песня о том, как обманчива жизнь и как важно быть личностью, и совсем необязательно выдающейся.
Обращенная внутрь себя, гипнотизирующая и выдержанная в спокойном среднем темпе композиция "Calm Down" похожа на мрачный сеанс медитации на фоне комплексного кибер–саунда, усеянного синтетическими звуками–микробами. Десятиминутный опус "Prophets Of The Sun" есть безграничный космический саундтрек, темное дитя транса и эмбиента, обнаруженное в результате сканирования Вселенной, полной битов–метеоритов, звездных россыпей и бледных планет. Показательный пример того, как нужно делать индустриальную музыку, чтобы потом не было стыдно.
Композиция "Dying Culture" вполне могла бы родиться в недрах In Strict Confidence, :wumpscut: или Mentallo And The Fixer. Второй клубный боевик "Marvelous Dreams" повествует об опустошающей силе прошедшей любви. Мелодичный трек с чеканным ритмом и увлекающими синтезаторными переливами. Эстафету от последнего принимает еще более мощный танцевальный номер "Pendulum". Действительно сильная вещь!
Чрезвычайно интересной показалась нам длиннющая, но совершенно не утомляющая композиция "13 Minutes Of Life", слушая которую мы замерли, словно переступили порог старинного собора. Мы почувствовали себя песчинками в быстротечном потоке жизни между Рождением и Смертью. Трек сшит из нескольких сменяющих одна другую тем - вот из таких разных кусочков собраны и наши жизни. Завершает альбом вещь "Schwartze Welten", чуть ли не "лунная соната" Бетховена или один из саундтреков Эннио Мориконе, но в электронном варианте с настроениями блэк–металлической и готической музыки. Саунд струйками ртутного дождя медленно стекает по хрустальным построениям композиции. Можно слушать, склонив голову.
Все это были наши собственные впечатления от услышанного. А более объективные факты таковы: лейбл Zoth Ommog пополнил свой и без того впечатляющий список групп еще одной хорошей командой, а фэны электроиндастриэла получили возможность полакомиться очередной порцией серьезного электронного варева, искусно приготовленного технически очень сильной группой Abscess.
Правила, инструкции, FAQ!!!
Торрент  Добавлен [26 июн 2020, 21:07] Скачать торрент Магнет ссылка
Скачать торрент
[ Размер 21.55 КБ / Просмотров 9 ]

Статус
Проверен 
 
Размер  521.3 МБ
Приватный: Нет (DHT включён)
.torrent скачан  0
 


     Отправить личное сообщение
   
Страница 1 из 1
Показать сообщения за:  Поле сортировки  
Начать новую тему Ответить на тему


Сейчас этот форум просматривают: нет зарегистрированных пользователей и гости: 0


Вы не можете начинать темы
Вы не можете отвечать на сообщения
Вы не можете редактировать свои сообщения
Вы не можете удалять свои сообщения
Вы не можете добавлять вложения

Перейти:  
cron