Начать новую тему Ответить на тему
Статистика раздачи
Размер: 440.49 МБ | Добавлен: 26 июн 2020, 20:33 | Скачали: 0
Сидеров: 0  [0 байт/сек]    Личеров: 0  [0 байт/сек]
Пред. тема | След. тема 

Автор
Сообщение

СообщениеДобавлено: 26 июн 2020, 20:33 

Ответить с цитатой 

Abscess - Journey
Жанр: Industrial ,Electro
Год выпуска диска: 1996
Производитель диска: Germany, Glasnost Records
Аудио кодек: APE
Тип рипа: image+.cue
Битрейт аудио: lossless
Продолжительность: 1:12:38
Трэклист:
01 Trip (...To Despair) (8:03)
02 The Game (Shattered) (4:50)
03 Matter Of Conscience (4:47)
04 Liberty (7:13)
05 Trip (...Inside) (7:13)
06 Vicious Cover (4:07)
07 Knowledge (2:18)
08 Secret Of Resurrection (5:24)
09 Velocity (5:47)
10 Forged Voices (3:53)
11 Genesis (5:36)
12 The Other Side Of The Mirror (3:14)
13 Dialogue (5:11)
14 Passion And Faith (5:01)
Код:
Exact Audio Copy V0.99 prebeta 5 from 4. May 2009
Отчёт EAC об извлечении, выполненном 3. июля 2009, 18:36
Abscess / Journey
Дисковод: _NEC    DVD_RW ND-4571A   Adapter: 1  ID: 1
Режим чтения                 : Достоверность
Использование точного потока : Да
Отключение кэша аудио        : Да
Использование указателей C2  : Нет
Коррекция смещения при чтении                     : 48
Способность читать области Lead-in и Lead-out     : Нет
Заполнение пропущенных сэмплов тишиной            : Да
Удаление блоков с тишиной в начале и конце        : Нет
При вычислениях CRC использовались нулевые сэмплы : Да
Интерфейс                                         : Установленный внешний ASPI-интерфейс
Выходной формат          : Monkey's Audio (без потерь)
Выбранный битрейт        : High Lossless Compression
Качество                 : Высокий
Добавление ID3-тэга      : Нет
Утилита сжатия           : C:\Program Files\Monkey's Audio\MAC.exe
TOC извлечённого CD
     Трек |   Старт  | Длительность | Начальный сектор | Конечный сектор
    ---------------------------------------------------------------------
       1  |  0:00.00 |    8:03.10   |           0      |      36234
       2  |  8:03.10 |    4:48.55   |       36235      |      57889
       3  | 12:51.65 |    4:46.10   |       57890      |      79349
       4  | 17:38.00 |    7:08.60   |       79350      |     111509
       5  | 24:46.60 |    7:11.65   |      111510      |     143899
       6  | 31:58.50 |    4:06.02   |      143900      |     162351
       7  | 36:04.52 |    2:16.00   |      162352      |     172551
       8  | 38:20.52 |    5:21.55   |      172552      |     196681
       9  | 43:42.32 |    5:47.03   |      196682      |     222709
      10  | 49:29.35 |    3:51.60   |      222710      |     240094
      11  | 53:21.20 |    5:35.32   |      240095      |     265251
      12  | 58:56.52 |    3:14.33   |      265252      |     279834
      13  | 62:11.10 |    5:11.27   |      279835      |     303186
      14  | 67:22.37 |    5:15.20   |      303187      |     326831
Характеристики диапазона извлечения и сообщения об ошибках
Выбранный диапазон
     Имя файла D:\music\Abscess\Journey\Abscess-Journey\Abscess - Journey.wav
     Пиковый уровень 98.8 %
     Качество диапазона 100.0 %
     CRC теста 21BCD10C
     CRC копии 21BCD10C
     Копирование... OK
Ошибок не произошло
AccurateRip: сводка
Трек  1  нет в базе данных
Трек  2  нет в базе данных
Трек  3  нет в базе данных
Трек  4  нет в базе данных
Трек  5  нет в базе данных
Трек  6  нет в базе данных
Трек  7  нет в базе данных
Трек  8  нет в базе данных
Трек  9  нет в базе данных
Трек 10  нет в базе данных
Трек 11  нет в базе данных
Трек 12  нет в базе данных
Трек 13  нет в базе данных
Трек 14  нет в базе данных
Ни одного трека нет в базе AccurateRip
Конец отчёта
Доп. информация: Собственноручный рип с фирменного диска. Сканы включены в раздачу.
Предупреждение - эта музыка может реально снести башню.
Буду признателен, получив ссылки на группы, очень похожие на Abscess, Pulse Legion, Concrete Nature
Правила, инструкции, FAQ!!!
Торрент  Добавлен [26 июн 2020, 20:33] Скачать торрент Магнет ссылка
Скачать торрент
[ Размер 17.96 КБ / Просмотров 10 ]

Статус
Проверен 
 
Размер  440.49 МБ
Приватный: Нет (DHT включён)
.torrent скачан  0
 


     Отправить личное сообщение
   
Страница 1 из 1
Показать сообщения за:  Поле сортировки  
Начать новую тему Ответить на тему


Сейчас этот форум просматривают: нет зарегистрированных пользователей и гости: 0


Вы не можете начинать темы
Вы не можете отвечать на сообщения
Вы не можете редактировать свои сообщения
Вы не можете удалять свои сообщения
Вы не можете добавлять вложения

Перейти:  
cron