Начать новую тему Ответить на тему
Статистика раздачи
Размер: 478.72 МБ | Добавлен: 26 июн 2020, 20:43 | Скачали: 0
Сидеров: 0  [0 байт/сек]    Личеров: 0  [0 байт/сек]
Пред. тема | След. тема 

Автор
Сообщение

СообщениеДобавлено: 26 июн 2020, 20:43 

Ответить с цитатой 

XP8 - Hrs:Min:Sec
Жанр: industrial EBM
Год выпуска диска: 2005
Производитель диска: (Infacted Recordings, Germany)
Аудио кодек: FLAC
Тип рипа: image+.cue
Битрейт аудио: lossless
Продолжительность: 66:10.51
Трэклист:
01. Count In... [0:50]
02. Muv Your Dolly [4:54]
03. Bleed And Shout [4:51]
04. Not There [4:58]
05. Purity [5:16]
06. Dreamt Of Blue [6:11]
07. Escape Velocity [4:01]
08. Flatline [4:04]
09. The God Particle [4:49]
10. Cuttin 'N' Drinkin [4:03]
11. Lies [6:03]
12. Seed [5:05]
13. Our Being [4:05]
14. Hrs:Min:Sec [7:00]
Код:
Exact Audio Copy V0.99 prebeta 4 from 23. January 2008
Отчёт EAC об извлечении, выполненном 22. октября 2009, 12:30
XP8 / Hrs:Min:Sec
Дисковод: Optiarc DVD RW AD-7173A   Adapter: 0  ID: 0
Режим чтения                 : Достоверность
Использование точного потока : Да
Отключение кэша аудио        : Да
Использование указателей C2  : Нет
Коррекция смещения при чтении                     : 48
Способность читать области Lead-in и Lead-out     : Нет
Заполнение пропущенных сэмплов тишиной            : Да
Удаление блоков с тишиной в начале и конце        : Нет
При вычислениях CRC использовались нулевые сэмплы : Да
Интерфейс                                         : Установленный внешний ASPI-интерфейс
Выходной формат          : Пользовательский кодировщик
Выбранный битрейт        : 1024 kBit/s
Качество                 : Высокий
Добавление ID3-тэга      : Нет
Утилита сжатия           : C:\Program Files\Exact Audio Copy\Flac\flac.exe
Дополнительные параметры : -6 -V -T "ARTIST=%a" -T "TITLE=%t" -T "ALBUM=%g" -T "DATE=%y" -T "TRACKNUMBER=%n" -T "GENRE=%m" -T "COMMENT=%e" %s -o %d
TOC извлечённого CD
     Трек |   Старт  | Длительность | Начальный сектор | Конечный сектор
    ---------------------------------------------------------------------
       1  |  0:00.00 |    0:50.21   |           0      |       3770
       2  |  0:50.21 |    4:54.26   |        3771      |      25846
       3  |  5:44.47 |    4:51.06   |       25847      |      47677
       4  | 10:35.53 |    4:57.38   |       47678      |      69990
       5  | 15:33.16 |    5:15.59   |       69991      |      93674
       6  | 20:49.00 |    6:10.41   |       93675      |     121465
       7  | 26:59.41 |    4:01.37   |      121466      |     139577
       8  | 31:01.03 |    4:04.27   |      139578      |     157904
       9  | 35:05.30 |    4:48.74   |      157905      |     179578
      10  | 39:54.29 |    4:03.20   |      179579      |     197823
      11  | 43:57.49 |    6:03.36   |      197824      |     225084
      12  | 50:01.10 |    5:04.56   |      225085      |     247940
      13  | 55:05.66 |    4:05.01   |      247941      |     266316
      14  | 59:10.67 |    6:59.59   |      266317      |     297800
Характеристики диапазона извлечения и сообщения об ошибках
Выбранный диапазон
     Имя файла E:\torrent2\XP8 - Hrs Min Sec.wav
     Пиковый уровень 100.0 %
     Качество диапазона 99.9 %
     CRC теста C5CCB464
     CRC копии C5CCB464
     Копирование... OK
Ошибок не произошло
AccurateRip: сводка
Трек  1  нет в базе данных
Трек  2  нет в базе данных
Трек  3  нет в базе данных
Трек  4  нет в базе данных
Трек  5  нет в базе данных
Трек  6  нет в базе данных
Трек  7  нет в базе данных
Трек  8  нет в базе данных
Трек  9  нет в базе данных
Трек 10  нет в базе данных
Трек 11  нет в базе данных
Трек 12  нет в базе данных
Трек 13  нет в базе данных
Трек 14  нет в базе данных
Ни одного трека нет в базе AccurateRip
Конец отчёта
Хочешь скачать, но не можешь из-за отсутствия сидов - пиши в личку!
Правила, инструкции, FAQ!!!
Торрент  Добавлен [26 июн 2020, 20:43] Скачать торрент Магнет ссылка
Скачать торрент
[ Размер 19.62 КБ / Просмотров 9 ]

Статус
Проверен 
 
Размер  478.72 МБ
Приватный: Нет (DHT включён)
.torrent скачан  0
 


     Отправить личное сообщение
   
Страница 1 из 1
Показать сообщения за:  Поле сортировки  
Начать новую тему Ответить на тему


Сейчас этот форум просматривают: нет зарегистрированных пользователей и гости: 0


Вы не можете начинать темы
Вы не можете отвечать на сообщения
Вы не можете редактировать свои сообщения
Вы не можете удалять свои сообщения
Вы не можете добавлять вложения

Перейти:  
cron