Начать новую тему Ответить на тему
Статистика раздачи
Размер: 426.94 МБ | Добавлен: 26 июн 2020, 20:43 | Скачали: 0
Сидеров: 0  [0 байт/сек]    Личеров: 0  [0 байт/сек]
Пред. тема | След. тема 

Автор
Сообщение

СообщениеДобавлено: 26 июн 2020, 20:43 

Ответить с цитатой 

XP8 / Forgiven
Жанр: industrial EBM
Страна-производитель диска: Poland
Год издания диска: 2004
Издатель (лейбл): Black Flames Records
Номер по каталогу: BFCD018
Аудио кодек: FLAC (*.flac)
Тип рипа: image+.cue
Битрейт аудио: lossless
Продолжительность: 58:30.25
Источник (релизер): Физический носитель
Наличие сканов в содержимом раздачи: да
Треклист:
01. Warm Up [1:12]
02. Angel And The Beast [4:22]
03. Das Licht [4:27]
04. Liebling (Du Bist Ausgezeichnet Version) [4:21]
05. Straight Down [4:27]
06. Forgave [5:08]
07. She Says [4:24]
08. Ephedra (BDC Version) [5:57]
09. Wet Dream [4:26]
10. The Fall [4:22]
11. The Slightest Sound [4:31]
12. Our Scars [4:52]
13. She Says (Verbose remix by Assemblage 23) [6:01]
Код:
Exact Audio Copy V0.99 prebeta 5 from 4. May 2009
Отчёт EAC об извлечении, выполненном 16. ноября 2010, 22:01
XP8 / Forgiven
Дисковод: Optiarc DVD RW AD-7173A   Adapter: 0  ID: 0
Режим чтения                 : Достоверность
Использование точного потока : Да
Отключение кэша аудио        : Да
Использование указателей C2  : Нет
Коррекция смещения при чтении                     : 48
Способность читать области Lead-in и Lead-out     : Нет
Заполнение пропущенных сэмплов тишиной            : Да
Удаление блоков с тишиной в начале и конце        : Нет
При вычислениях CRC использовались нулевые сэмплы : Да
Интерфейс                                         : Установленный внешний ASPI-интерфейс
Выходной формат          : Пользовательский кодировщик
Выбранный битрейт        : 1024 kBit/s
Качество                 : Высокий
Добавление ID3-тэга      : Нет
Утилита сжатия           : C:\Program Files\Exact Audio Copy\flac.exe
Дополнительные параметры : -6 -V -T "ARTIST=%a" -T "TITLE=%t" -T "ALBUM=%g" -T "DATE=%y" -T "TRACKNUMBER=%n" -T "GENRE=%m" -T "COMMENT=%e" %s -o %d
TOC извлечённого CD
     Трек |   Старт  | Длительность | Начальный сектор | Конечный сектор
    ---------------------------------------------------------------------
       1  |  0:00.00 |    1:12.00   |           0      |       5399
       2  |  1:12.00 |    4:22.37   |        5400      |      25086
       3  |  5:34.37 |    4:26.68   |       25087      |      45104
       4  | 10:01.30 |    4:20.59   |       45105      |      64663
       5  | 14:22.14 |    4:26.46   |       64664      |      84659
       6  | 18:48.60 |    5:08.33   |       84660      |     107792
       7  | 23:57.18 |    4:23.51   |      107793      |     127568
       8  | 28:20.69 |    5:56.61   |      127569      |     154329
       9  | 34:17.55 |    4:26.12   |      154330      |     174291
      10  | 38:43.67 |    4:22.16   |      174292      |     193957
      11  | 43:06.08 |    4:31.28   |      193958      |     214310
      12  | 47:37.36 |    4:51.70   |      214311      |     236205
      13  | 52:29.31 |    6:00.69   |      236206      |     263274
Характеристики диапазона извлечения и сообщения об ошибках
Выбранный диапазон
     Имя файла H:\СКАЧКА\FLAC\1 TORRENT\XP8 - Forgiven.wav
     Пиковый уровень 100.0 %
     Качество диапазона 100.0 %
     CRC теста 6E7C54D6
     CRC копии 6E7C54D6
     Копирование... OK
Ошибок не произошло
AccurateRip: сводка
Трек  1  точное извлечение (доверие 2)  [CAB01EEE]
Трек  2  точное извлечение (доверие 2)  [801145D7]
Трек  3  точное извлечение (доверие 2)  [5DD71324]
Трек  4  точное извлечение (доверие 2)  [94C4C449]
Трек  5  точное извлечение (доверие 2)  [4E104D49]
Трек  6  точное извлечение (доверие 2)  [EF2CA90D]
Трек  7  точное извлечение (доверие 2)  [FF1C62F8]
Трек  8  точное извлечение (доверие 2)  [D43AF721]
Трек  9  точное извлечение (доверие 2)  [423DD934]
Трек 10  точное извлечение (доверие 2)  [AE1CB1F9]
Трек 11  точное извлечение (доверие 2)  [5DF6E346]
Трек 12  точное извлечение (доверие 2)  [F2D9930C]
Трек 13  нет в базе данных
12 трек(и) скопированы точно
 1 трек(и) не содержатся в базе AccurateRip
Некоторые треки не прошли проверку на точность
Конец отчёта
Доп. информация: Выложил с разрешения maxmin, т.к. спектры просто ужасающие.
Правила, инструкции, FAQ!!!
Торрент  Добавлен [26 июн 2020, 20:43] Скачать торрент Магнет ссылка
Скачать торрент
[ Размер 17.7 КБ / Просмотров 2 ]

Статус
Проверен 
 
Размер  426.94 МБ
Приватный: Нет (DHT включён)
.torrent скачан  0
 


     Отправить личное сообщение
   
Страница 1 из 1
Показать сообщения за:  Поле сортировки  
Начать новую тему Ответить на тему


Сейчас этот форум просматривают: нет зарегистрированных пользователей и гости: 0


Вы не можете начинать темы
Вы не можете отвечать на сообщения
Вы не можете редактировать свои сообщения
Вы не можете удалять свои сообщения
Вы не можете добавлять вложения

Перейти:  
cron