Начать новую тему Ответить на тему
Статистика раздачи
Размер: 457.6 МБ | Добавлен: 26 июн 2020, 20:43 | Скачали: 0
Сидеров: 0  [0 байт/сек]    Личеров: 0  [0 байт/сек]
Пред. тема | След. тема 

Автор
Сообщение

СообщениеДобавлено: 26 июн 2020, 20:43 

Ответить с цитатой 

XP8 - Drop The Mask
Жанр: industrial EBM
Год выпуска диска: 2010
Производитель диска: (Infacted Recordings, Germany)
Аудио кодек: FLAC
Тип рипа: image+.cue
Битрейт аудио: lossless
Продолжительность: 1:00:31.51
Трэклист:
01. Blind [4:30]
02. Want It [4:49]
03. One True God [4:26]
04. One Pill Missing [4:47]
05. Breathe The Poison In [4:21]
06. Awake, Restart [4:18]
07. Born Dead [3:59]
08. Out Of Control [4:10]
09. Drop The Mask [4:28]
10. Scorpio Eyes [5:39]
11. Out For Blood [4:18]
12. Bad Guys [4:24]
13. Our Time (Pt.II) [6:22]
Источник: Физический носитель
Код:
Exact Audio Copy V0.99 prebeta 5 from 4. May 2009
Отчёт EAC об извлечении, выполненном 9. июня 2010, 23:08
XP8 / Drop The Mask
Дисковод: Optiarc DVD RW AD-7173A   Adapter: 0  ID: 0
Режим чтения                 : Достоверность
Использование точного потока : Да
Отключение кэша аудио        : Да
Использование указателей C2  : Нет
Коррекция смещения при чтении                     : 48
Способность читать области Lead-in и Lead-out     : Нет
Заполнение пропущенных сэмплов тишиной            : Да
Удаление блоков с тишиной в начале и конце        : Нет
При вычислениях CRC использовались нулевые сэмплы : Да
Интерфейс                                         : Установленный внешний ASPI-интерфейс
Выходной формат          : Пользовательский кодировщик
Выбранный битрейт        : 1024 kBit/s
Качество                 : Высокий
Добавление ID3-тэга      : Нет
Утилита сжатия           : C:\Program Files\Exact Audio Copy\Flac\flac.exe
Дополнительные параметры : -6 -V -T "ARTIST=%a" -T "TITLE=%t" -T "ALBUM=%g" -T "DATE=%y" -T "TRACKNUMBER=%n" -T "GENRE=%m" -T "COMMENT=%e" %s -o %d
TOC извлечённого CD
     Трек |   Старт  | Длительность | Начальный сектор | Конечный сектор
    ---------------------------------------------------------------------
       1  |  0:00.00 |    4:30.20   |           0      |      20269
       2  |  4:30.20 |    4:49.25   |       20270      |      41969
       3  |  9:19.45 |    4:25.54   |       41970      |      61898
       4  | 13:45.24 |    4:47.17   |       61899      |      83440
       5  | 18:32.41 |    4:21.24   |       83441      |     103039
       6  | 22:53.65 |    4:17.53   |      103040      |     122367
       7  | 27:11.43 |    3:59.13   |      122368      |     140305
       8  | 31:10.56 |    4:10.30   |      140306      |     159085
       9  | 35:21.11 |    4:27.55   |      159086      |     179165
      10  | 39:48.66 |    5:39.05   |      179166      |     204595
      11  | 45:27.71 |    4:17.69   |      204596      |     223939
      12  | 49:45.65 |    4:23.74   |      223940      |     243738
      13  | 54:09.64 |    6:21.62   |      243739      |     272375
Характеристики диапазона извлечения и сообщения об ошибках
Выбранный диапазон
     Имя файла H:\СКАЧКА\FLAC\1 TORRENT\XP8 - Drop The Mask.wav
     Пиковый уровень 98.9 %
     Качество диапазона 99.9 %
     CRC теста D9991348
     CRC копии D9991348
     Копирование... OK
Ошибок не произошло
AccurateRip: сводка
Трек  1  точное извлечение (доверие 1)  [40A3B89C]
Трек  2  точное извлечение (доверие 1)  [D9C82539]
Трек  3  точное извлечение (доверие 1)  [7D2F404F]
Трек  4  точное извлечение (доверие 1)  [CD1797FD]
Трек  5  точное извлечение (доверие 1)  [50330198]
Трек  6  точное извлечение (доверие 1)  [C94B892F]
Трек  7  точное извлечение (доверие 1)  [A90D88AD]
Трек  8  точное извлечение (доверие 1)  [16FFF92C]
Трек  9  точное извлечение (доверие 1)  [BD05E3B5]
Трек 10  точное извлечение (доверие 1)  [6A7300FC]
Трек 11  точное извлечение (доверие 1)  [F326358C]
Трек 12  точное извлечение (доверие 1)  [B606F460]
Трек 13  точное извлечение (доверие 1)  [CB8A6946]
Все треки извлечены точно
Конец отчёта
Хочешь скачать, но не можешь из-за отсутствия сидов - пиши в личку!
Правила, инструкции, FAQ!!!
Торрент  Добавлен [26 июн 2020, 20:43] Скачать торрент Магнет ссылка
Скачать торрент
[ Размер 18.8 КБ / Просмотров 6 ]

Статус
Проверен 
 
Размер  457.6 МБ
Приватный: Нет (DHT включён)
.torrent скачан  0
 


     Отправить личное сообщение
   
Страница 1 из 1
Показать сообщения за:  Поле сортировки  
Начать новую тему Ответить на тему


Сейчас этот форум просматривают: нет зарегистрированных пользователей и гости: 0


Вы не можете начинать темы
Вы не можете отвечать на сообщения
Вы не можете редактировать свои сообщения
Вы не можете удалять свои сообщения
Вы не можете добавлять вложения

Перейти:  
cron