Начать новую тему Ответить на тему
Статистика раздачи
Размер: 326.27 МБ | Добавлен: 26 июн 2020, 21:09 | Скачали: 0
Сидеров: 0  [0 байт/сек]    Личеров: 0  [0 байт/сек]
Пред. тема | След. тема 

Автор
Сообщение

СообщениеДобавлено: 26 июн 2020, 21:09 

Ответить с цитатой 

Leæther Strip
Getting Away With Murder: Murders From 1982 To 1995

Жанр: Industrial, EBM
Страна-производитель диска: USA
Год издания диска: 1995
Издатель (лейбл): Ras Dva Records
Номер по каталогу: 12CD06
Аудио кодек: FLAC (*.flac)
Тип рипа: tracks+.cue
Битрейт аудио: lossless
Продолжительность: 00:47:31
Источник (релизер): what.cd (Rfi)
Наличие сканов в содержимом раздачи: нет
Треклист:
01 Tears Of Stone (Confinement Tour Intro) (2:55)
02 No Rest For The Wicked (No Vox Version) (5:30)
03 Dreaming (Two Track Demo 1982) (4:15)
04 Never Trust Anyone At The Carnival (Two Track Demo 1984) (4:31)
05 Satanic Citizen (Live) (6:01)
06 Touchdown Breakdown (Live) (3:35)
07 Crash (Flight 232) (Live) (4:40)
08 Zyclon B (Live) (5:48)
09 Leaether Strip Part II (Live) (6:18)
10 Murder (4:10)
Код:
EAC extraction logfile from 16. October 2006, 1:28 for CD
Leaether Strip / Getting Away with Murder: Murders from 1982 to 1995
Used drive  : LITE-ON LTR-52327S   Adapter: 1  ID: 0
Read mode   : Secure with NO C2, accurate stream, disable cache
Read offset correction : 6
Overread into Lead-In and Lead-Out : No
Used output format : C:\Program Files\FLAC\flac.exe   (User Defined Encoder)
                     320 kBit/s
                     Additional command line options : -V -8 -T "artist=%a" -T "title=%t" -T "album=%g" -T "date=%y" -T "tracknumber=%n" -T "genre=%m" %s
Other options      :
    Fill up missing offset samples with silence : Yes
    Delete leading and trailing silent blocks : No
    Installed external ASPI interface
Track  1
     Filename E:\Leжther Strip\Leaether Strip - Getting Away with Murder (Murders from 1982 to 1995)\01 - Tears of Stone (Confinement Tour Intro).wav
     Pre-gap length  0:00:02.00
     Peak level 100.0 %
     Track quality 100.0 %
     Copy CRC A35A24D6
     Copy OK
Track  2
     Filename E:\Leжther Strip\Leaether Strip - Getting Away with Murder (Murders from 1982 to 1995)\02 - No Rest for the Wicked (No Vox Version).wav
     Pre-gap length  0:00:03.00
     Peak level 100.0 %
     Track quality 100.0 %
     Copy CRC 0C74538C
     Copy OK
Track  3
     Filename E:\Leжther Strip\Leaether Strip - Getting Away with Murder (Murders from 1982 to 1995)\03 - Dreaming (Two Track Demo 1982).wav
     Pre-gap length  0:00:03.00
     Peak level 100.0 %
     Track quality 100.0 %
     Copy CRC 9A8A92D7
     Copy OK
Track  4
     Filename E:\Leжther Strip\Leaether Strip - Getting Away with Murder (Murders from 1982 to 1995)\04 - Never Trust Anyone at the Carnival (Two Track Demo 1984).wav
     Pre-gap length  0:00:03.00
     Peak level 100.0 %
     Track quality 99.9 %
     Copy CRC B7AE0308
     Copy OK
Track  5
     Filename E:\Leжther Strip\Leaether Strip - Getting Away with Murder (Murders from 1982 to 1995)\05 - Satanic Citizen.wav
     Pre-gap length  0:00:03.00
     Peak level 100.0 %
     Track quality 100.0 %
     Copy CRC 24DCD421
     Copy OK
Track  6
     Filename E:\Leжther Strip\Leaether Strip - Getting Away with Murder (Murders from 1982 to 1995)\06 - Touchdown Breakdown.wav
     Peak level 100.0 %
     Track quality 100.0 %
     Copy CRC 1E322484
     Copy OK
Track  7
     Filename E:\Leжther Strip\Leaether Strip - Getting Away with Murder (Murders from 1982 to 1995)\07 - Crash (Flight 232).wav
     Peak level 100.0 %
     Track quality 100.0 %
     Copy CRC 31873F92
     Copy OK
Track  8
     Filename E:\Leжther Strip\Leaether Strip - Getting Away with Murder (Murders from 1982 to 1995)\08 - Zyclon B.wav
     Peak level 100.0 %
     Track quality 100.0 %
     Copy CRC 961DF3D6
     Copy OK
Track  9
     Filename E:\Leжther Strip\Leaether Strip - Getting Away with Murder (Murders from 1982 to 1995)\09 - Le ther Strip Part II.wav
     Peak level 86.1 %
     Track quality 100.0 %
     Copy CRC C1A1CC55
     Copy OK
Track 10
     Filename E:\Leжther Strip\Leaether Strip - Getting Away with Murder (Murders from 1982 to 1995)\10 - Murder.wav
     Pre-gap length  0:00:03.00
     Peak level 100.0 %
     Track quality 100.0 %
     Copy CRC DF5E6A8F
     Copy OK
No errors occured
End of status report
Код:
REM GENRE Industrial
REM DATE 1995
REM DISCID 7B0B320A
REM COMMENT "ExactAudioCopy v0.95b4"
PERFORMER "Leaether Strip"
TITLE "Getting Away with Murder: Murders from 1982 to 1995"
FILE "01 - Tears of Stone (Confinement Tour Intro).wav" WAVE
  TRACK 01 AUDIO
    TITLE "Tears of Stone (Confinement Tour Intro)"
    PERFORMER "Leaether Strip"
    INDEX 01 00:00:00
  TRACK 02 AUDIO
    TITLE "No Rest for the Wicked (No Vox Version)"
    PERFORMER "Leaether Strip"
    INDEX 00 02:52:28
FILE "02 - No Rest for the Wicked (No Vox Version).wav" WAVE
    INDEX 01 00:00:00
  TRACK 03 AUDIO
    TITLE "Dreaming (Two Track Demo 1982)"
    PERFORMER "Leaether Strip"
    INDEX 00 05:27:25
FILE "03 - Dreaming (Two Track Demo 1982).wav" WAVE
    INDEX 01 00:00:00
  TRACK 04 AUDIO
    TITLE "Never Trust Anyone at the Carnival (Two Track Demo 1984)"
    PERFORMER "Leaether Strip"
    INDEX 00 04:12:12
FILE "04 - Never Trust Anyone at the Carnival (Two Track Demo 1984).wav" WAVE
    INDEX 01 00:00:00
  TRACK 05 AUDIO
    TITLE "Satanic Citizen"
    PERFORMER "Leaether Strip"
    INDEX 00 04:28:45
FILE "05 - Satanic Citizen.wav" WAVE
    INDEX 01 00:00:00
FILE "06 - Touchdown Breakdown.wav" WAVE
  TRACK 06 AUDIO
    TITLE "Touchdown Breakdown"
    PERFORMER "Leaether Strip"
    INDEX 01 00:00:00
FILE "07 - Crash (Flight 232).wav" WAVE
  TRACK 07 AUDIO
    TITLE "Crash (Flight 232)"
    PERFORMER "Leaether Strip"
    INDEX 01 00:00:00
FILE "08 - Zyclon B.wav" WAVE
  TRACK 08 AUDIO
    TITLE "Zyclon B"
    PERFORMER "Leaether Strip"
    INDEX 01 00:00:00
FILE "09 - Le ther Strip Part II.wav" WAVE
  TRACK 09 AUDIO
    TITLE "Le ther Strip Part II"
    PERFORMER "Leaether Strip"
    INDEX 01 00:00:00
  TRACK 10 AUDIO
    TITLE "Murder"
    PERFORMER "Leaether Strip"
    INDEX 00 06:15:23
FILE "10 - Murder.wav" WAVE
    INDEX 01 00:00:00
Код:
AUDIOCHECKER v2.0 beta (build 457) - by Dester - opdester@freemail.hu
~~~~~~~~~~~~~~~~~~~~~~~~~~~~~~~~~~
-=== DO NOT EDIT THIS FILE! ===-
Path: ...\Leaether Strip - Getting Away with Murder (Murders from 1982 to 1995)
01 -=- 01 - Tears of Stone (Confinement Tour Intro).flac -=- CDDA (100%)
02 -=- 02 - No Rest for the Wicked (No Vox Version).flac -=- CDDA (100%)
03 -=- 03 - Dreaming (Two Track Demo 1982).flac -=- CDDA (100%)
04 -=- 04 - Never Trust Anyone at the Carnival (Two Track Demo 1984).flac -=- CDDA (100%)
05 -=- 05 - Satanic Citizen.flac -=- CDDA (100%)
06 -=- 06 - Touchdown Breakdown.flac -=- CDDA (100%)
07 -=- 07 - Crash (Flight 232).flac -=- CDDA (100%)
08 -=- 08 - Zyclon B.flac -=- CDDA (99%)
09 -=- 09 - Le ther Strip Part II.flac -=- CDDA (100%)
10 -=- 10 - Murder.flac -=- CDDA (100%)
Summary 99,90% CDDA
18840884
Доп. информация: Limited Edition Release: 500 copies in America, 500 in Europe
Правила, инструкции, FAQ!!!
Торрент  Добавлен [26 июн 2020, 21:09] Скачать торрент Магнет ссылка
Скачать торрент
[ Размер 14.32 КБ / Просмотров 14 ]

Статус
Проверен 
 
Размер  326.27 МБ
Приватный: Нет (DHT включён)
.torrent скачан  0
 


     Отправить личное сообщение
   
Страница 1 из 1
Показать сообщения за:  Поле сортировки  
Начать новую тему Ответить на тему


Сейчас этот форум просматривают: нет зарегистрированных пользователей и гости: 0


Вы не можете начинать темы
Вы не можете отвечать на сообщения
Вы не можете редактировать свои сообщения
Вы не можете удалять свои сообщения
Вы не можете добавлять вложения

Перейти:  
cron