Начать новую тему Ответить на тему
Статистика раздачи
Размер: 309.26 МБ | Добавлен: 26 июн 2020, 17:48 | Скачали: 0
Сидеров: 0  [0 байт/сек]    Личеров: 0  [0 байт/сек]
Пред. тема | След. тема 

Автор
Сообщение

СообщениеДобавлено: 26 июн 2020, 17:48 

Ответить с цитатой 


Жанр: Industrial/EBM/TBM
Страна: Германия
Аудио кодек: lossles
Тип рипа: image+cue
Битрейт аудио: lossless
Продолжительность: ~00:40:00
Источник (релизер): Рип с оригинального диска
Наличие сканов в содержимом раздачи: нет

Combichrist - норвежский TBM/Aggrotech проект, родившийся благодаря известному Энди Ла Плегуа (Icon Of Coil).
В 2003 году Энди записал несколько power noise/techno треков. Название проекта было «DRIVE». Перед выходом дебютного альбома название было изменено на Combichrist. Слово было взято из самодельного журнала Энди. Вскоре Энди переехал в США, где сейчас находится главная резиденция Combichrist и других проектов, которыми занимается Ла Плегуа.
В 2004 году EP «Sex, Drogen und Industrial» продержался на первом месте 7 недель в Германском Альтернативном Чарте (DAC charts). В 2005 году вышел LP «Everybody Hates You». В это время группа активно начинала употреблять термин TBM (Techno Body Music), дабы охаректиризовать свой звук.
Сингл «Get Your Body Beat» (2006) снова показал возможности Combichrist, и довольно таки прилично расположился в чартах многих стран. В марте 2007 года выходит следующий LP «What The Fuck Is Wrong With You People?», который снова достаточно хорошо бьёт рекорды продаж.
01 All Pain Is Gone (Rapid Ascent Mix By VNV Nation)
02 All Pain Is Gone (Matthew Grim Deathmix)
03 Can’t Change The Beat (Designer Drugs Remix)
04 Can’t Change The Beat (Aesthetic Perfection Remix)
05 Can’t Change The Beat (Remixed By Vaughn_e)
06 Can’t Change The Beat (Assemblage 23 Remix)
Video
На диске предоставлено две видеозаписи с выступлений.
Общее
Полное имя : C:\Мои разадчи\Combichrist\2009 - Heat Ep- All Pain Is Beat - Combichrist\combichrist_getoutofmyhead.mpg
Формат : MPEG-PS
Размер файла : 45,6 Мбайт
Продолжительность : 4 м. 30 с.
Общий поток : 1412 Кбит/сек
Библиотека кодирования : Created by Nero
Видео
Идентификатор : 224 (0xE0)
Формат : MPEG Video
Версия формата : Version 1
Параметр BVOP формата : Да
Параметр матрицы формата : По умолчанию
Продолжительность : 4 м. 30 с.
Вид битрейта : Постоянный
Битрейт : 1160 Кбит/сек
Номинальный битрейт : 1100 Кбит/сек
Ширина : 352 пикс.
Высота : 240 пикс.
Соотношение сторон : 4:3
Частота кадров : 29,970 кадр/сек
Стандарт вещания : NTSC
Цветовое пространство : YUV
Битовая глубина : 8 бит
Тип развёртки : Прогрессивная
Метод сжатия : С потерями
Бит/(Пиксели*Кадры) : 0.458
Размер потока : 37,4 Мбайт (82%)
Библиотека кодирования : Created by Nero
Аудио
Идентификатор : 192 (0xC0)
Формат : MPEG Audio
Версия формата : Version 1
Профиль формата : Layer 2
Продолжительность : 4 м. 30 с.
Вид битрейта : Постоянный
Битрейт : 224 Кбит/сек
Канал(ы) : 2 канала(ов)
Частота : 44,1 КГц
Метод сжатия : С потерями
Задержка видео : -34 мс.
Размер потока : 7,23 Мбайт (16%)
На диске предоставлено две видеозаписи с выступлений.
Общее
Полное имя : C:\Мои разадчи\Combichrist\2009 - Heat Ep- All Pain Is Beat - Combichrist\combichrist_iwantyourblood.mpg
Формат : MPEG-PS
Размер файла : 53,3 Мбайт
Продолжительность : 5 м. 16 с.
Общий поток : 1412 Кбит/сек
Библиотека кодирования : Created by Nero
Видео
Идентификатор : 224 (0xE0)
Формат : MPEG Video
Версия формата : Version 1
Параметр BVOP формата : Да
Параметр матрицы формата : По умолчанию
Продолжительность : 5 м. 16 с.
Вид битрейта : Постоянный
Битрейт : 1160 Кбит/сек
Номинальный битрейт : 1100 Кбит/сек
Ширина : 352 пикс.
Высота : 240 пикс.
Соотношение сторон : 4:3
Частота кадров : 29,970 кадр/сек
Стандарт вещания : NTSC
Цветовое пространство : YUV
Битовая глубина : 8 бит
Тип развёртки : Прогрессивная
Метод сжатия : С потерями
Бит/(Пиксели*Кадры) : 0.458
Размер потока : 43,8 Мбайт (82%)
Библиотека кодирования : Created by Nero
Аудио
Идентификатор : 192 (0xC0)
Формат : MPEG Audio
Версия формата : Version 1
Профиль формата : Layer 2
Продолжительность : 5 м. 16 с.
Вид битрейта : Постоянный
Битрейт : 224 Кбит/сек
Канал(ы) : 2 канала(ов)
Частота : 44,1 КГц
Метод сжатия : С потерями
Задержка видео : -34 мс.
Размер потока : 8,45 Мбайт (16%)


Код:
Exact Audio Copy V1.0 beta 1 from 15. November 2010
EAC extraction logfile from 17. February 2011, 16:19
Combichrist / Heat Ep: All Pain Is Beat
Used drive  : HL-DT-STDVDRAM GT32N   Adapter: 1  ID: 0
Read mode               : Secure
Utilize accurate stream : Yes
Defeat audio cache      : Yes
Make use of C2 pointers : No
Read offset correction                      : 103
Overread into Lead-In and Lead-Out          : No
Fill up missing offset samples with silence : Yes
Delete leading and trailing silent blocks   : No
Null samples used in CRC calculations       : Yes
Used interface                              : Native Win32 interface for Win NT & 2000
Used output format              : User Defined Encoder
Selected bitrate                : 128 kBit/s
Quality                         : High
Add ID3 tag                     : No
Command line compressor         : C:\Program Files (x86)\Exact Audio Copy\Flac\flac.exe
Additional command line options : -8 -V %s
TOC of the extracted CD
     Track |   Start  |  Length  | Start sector | End sector
    ---------------------------------------------------------
        1  |  0:00.00 |  6:28.13 |         0    |    29112
        2  |  6:28.13 |  3:49.20 |     29113    |    46307
        3  | 10:17.33 |  3:45.30 |     46308    |    63212
        4  | 14:02.63 |  4:07.31 |     63213    |    81768
        5  | 18:10.19 |  5:24.03 |     81769    |   106071
        6  | 23:34.22 |  4:48.35 |    106072    |   127706
        7  | 30:54.57 | 11:18.15 |    139107    |   189971
Range status and errors
Selected range
     Filename C:\Program Files (x86)\Exact Audio Copy\Flac\2009 - Heat Ep- All Pain Is Beat - Combichrist.wav
     Peak level 99.8 %
     Extraction speed 0.7 X
     Range quality 100.0 %
     Test CRC 9E2DB33D
     Copy CRC 9E2DB33D
     Copy OK
No errors occurred
AccurateRip summary
Track  1  accurately ripped (confidence 3)  [3F21D7EF]
Track  2  accurately ripped (confidence 3)  [CE75468A]
Track  3  accurately ripped (confidence 3)  [FF3A34C0]
Track  4  accurately ripped (confidence 3)  [69EAFB6C]
Track  5  accurately ripped (confidence 3)  [1E25C0E2]
Track  6  accurately ripped (confidence 3)  [43AE13F6]
All tracks accurately ripped
End of status report



Сообщения из этой темы были выделены в отдельный топик Выделено из: (Industrial/EBM/TBM) - Combichrist - Heat EP: All Pain Is Beat (2009) 1 EP... [3432031]
Аndy
Правила, инструкции, FAQ!!!
Торрент  Добавлен [26 июн 2020, 17:48] Скачать торрент Магнет ссылка
Скачать торрент
[ Размер 12.99 КБ / Просмотров 12 ]

Статус
Проверен 
 
Размер  309.26 МБ
Приватный: Нет (DHT включён)
.torrent скачан  0
 


     Отправить личное сообщение
   
Страница 1 из 1
Показать сообщения за:  Поле сортировки  
Начать новую тему Ответить на тему


Сейчас этот форум просматривают: нет зарегистрированных пользователей и гости: 0


Вы не можете начинать темы
Вы не можете отвечать на сообщения
Вы не можете редактировать свои сообщения
Вы не можете удалять свои сообщения
Вы не можете добавлять вложения

Перейти:  
cron