Начать новую тему Ответить на тему
Статистика раздачи
Размер: 335.21 МБ | Добавлен: 26 июн 2020, 17:03 | Скачали: 0
Сидеров: 0  [0 байт/сек]    Личеров: 0  [0 байт/сек]
Пред. тема | След. тема 

Автор
Сообщение

СообщениеДобавлено: 26 июн 2020, 17:03 

Ответить с цитатой 

[Active] Media Disease - Organic
Жанр: Industrial, EBM, Synth-Pop
Год выпуска диска: 2000
Производитель диска: USA
Аудио кодек: FLAC
Тип рипа: tracks+.cue
Битрейт аудио: lossless
Продолжительность: 49:22
Трэклист:
1 Lost 4:00
2 Silky Smooth Kisses 4:14
3 Friends & Freaks 4:19
4 Stainless Steel 4:03
5 I Never Wanted To Be Me 4:43
6 This Room 3:37
7 Turn Into Lies 4:37
8 Contact Defect 4:58
9 Skin 4:39
10 The Blessing 3:51
11 Embarrassed 6:15
Источник: What.CD
Огромное спасибо автору релиза, runvis, с трекера What.CD за предоставленный материал.
Лучшая ваша благодарность за раздачу - отзывы об альбоме!
Еще одна вещь для ценителей!
Код:
Exact Audio Copy V0.99 prebeta 4 from 23. January 2008
EAC extraction logfile from 1. June 2010, 21:36
Unknown Artist / Unknown Title
Used drive  : TEAC    CD-W552G   Adapter: 0  ID: 0
Read mode               : Secure
Utilize accurate stream : Yes
Defeat audio cache      : Yes
Make use of C2 pointers : No
Read offset correction                      : 6
Overread into Lead-In and Lead-Out          : No
Fill up missing offset samples with silence : Yes
Delete leading and trailing silent blocks   : No
Null samples used in CRC calculations       : Yes
Used interface                              : Native Win32 interface for Win NT & 2000
Gap handling                                : Appended to previous track
Used output format : Internal WAV Routines
Sample format      : 44.100 Hz; 16 Bit; Stereo
TOC of the extracted CD
     Track |   Start  |  Length  | Start sector | End sector
    ---------------------------------------------------------
        1  |  0:00.00 |  4:00.48 |         0    |    18047
        2  |  4:00.48 |  4:14.30 |     18048    |    37127
        3  |  8:15.03 |  4:19.56 |     37128    |    56608
        4  | 12:34.59 |  4:03.44 |     56609    |    74877
        5  | 16:38.28 |  4:43.54 |     74878    |    96156
        6  | 21:22.07 |  3:37.19 |     96157    |   112450
        7  | 24:59.26 |  4:37.39 |    112451    |   133264
        8  | 29:36.65 |  4:58.01 |    133265    |   155615
        9  | 34:34.66 |  4:39.58 |    155616    |   176598
       10  | 39:14.49 |  3:51.35 |    176599    |   193958
       11  | 43:06.09 |  6:15.58 |    193959    |   222141
Track  1
     Filename E:\WAV\ACTIVE MEDIA DISEASE-2000-Organic\01.wav
     Pre-gap length  0:00:02.00
     Peak level 100.0 %
     Track quality 100.0 %
     Test CRC 9FE18FBE
     Copy CRC 9FE18FBE
     Copy OK
Track  2
     Filename E:\WAV\ACTIVE MEDIA DISEASE-2000-Organic\02.wav
     Peak level 100.0 %
     Track quality 100.0 %
     Test CRC D8E83297
     Copy CRC D8E83297
     Copy OK
Track  3
     Filename E:\WAV\ACTIVE MEDIA DISEASE-2000-Organic\03.wav
     Peak level 96.5 %
     Track quality 100.0 %
     Test CRC 1760C5CF
     Copy CRC 1760C5CF
     Copy OK
Track  4
     Filename E:\WAV\ACTIVE MEDIA DISEASE-2000-Organic\04.wav
     Peak level 89.1 %
     Track quality 100.0 %
     Test CRC 34BA33E8
     Copy CRC 34BA33E8
     Copy OK
Track  5
     Filename E:\WAV\ACTIVE MEDIA DISEASE-2000-Organic\05.wav
     Peak level 99.9 %
     Track quality 100.0 %
     Test CRC 64091E0E
     Copy CRC 64091E0E
     Copy OK
Track  6
     Filename E:\WAV\ACTIVE MEDIA DISEASE-2000-Organic\06.wav
     Pre-gap length  0:00:00.89
     Peak level 79.4 %
     Track quality 100.0 %
     Test CRC 7B3E59BC
     Copy CRC 7B3E59BC
     Copy OK
Track  7
     Filename E:\WAV\ACTIVE MEDIA DISEASE-2000-Organic\07.wav
     Peak level 100.0 %
     Track quality 100.0 %
     Test CRC E133FAAA
     Copy CRC E133FAAA
     Copy OK
Track  8
     Filename E:\WAV\ACTIVE MEDIA DISEASE-2000-Organic\08.wav
     Peak level 100.0 %
     Track quality 100.0 %
     Test CRC 325EA04F
     Copy CRC 325EA04F
     Copy OK
Track  9
     Filename E:\WAV\ACTIVE MEDIA DISEASE-2000-Organic\09.wav
     Peak level 100.0 %
     Track quality 100.0 %
     Test CRC B8DA71E6
     Copy CRC B8DA71E6
     Copy OK
Track 10
     Filename E:\WAV\ACTIVE MEDIA DISEASE-2000-Organic\10.wav
     Pre-gap length  0:00:00.96
     Peak level 89.1 %
     Track quality 100.0 %
     Test CRC 86A4C6A8
     Copy CRC 86A4C6A8
     Copy OK
Track 11
     Filename E:\WAV\ACTIVE MEDIA DISEASE-2000-Organic\11.wav
     Peak level 89.1 %
     Track quality 100.0 %
     Test CRC D53E749E
     Copy CRC D53E749E
     Copy OK
No errors occurred
End of status report
Код:
REM DISCID 940B910B
REM COMMENT "ExactAudioCopy v0.99pb4"
PERFORMER "Unknown Artist"
TITLE "Unknown Title"
FILE "01.wav" WAVE
  TRACK 01 AUDIO
    TITLE "Track01"
    PERFORMER "Unknown Artist"
    INDEX 01 00:00:00
FILE "02.wav" WAVE
  TRACK 02 AUDIO
    TITLE "Track02"
    PERFORMER "Unknown Artist"
    INDEX 01 00:00:00
FILE "03.wav" WAVE
  TRACK 03 AUDIO
    TITLE "Track03"
    PERFORMER "Unknown Artist"
    INDEX 01 00:00:00
FILE "04.wav" WAVE
  TRACK 04 AUDIO
    TITLE "Track04"
    PERFORMER "Unknown Artist"
    INDEX 01 00:00:00
FILE "05.wav" WAVE
  TRACK 05 AUDIO
    TITLE "Track05"
    PERFORMER "Unknown Artist"
    INDEX 01 00:00:00
  TRACK 06 AUDIO
    TITLE "Track06"
    PERFORMER "Unknown Artist"
    INDEX 00 04:42:62
FILE "06.wav" WAVE
    INDEX 01 00:00:00
FILE "07.wav" WAVE
  TRACK 07 AUDIO
    TITLE "Track07"
    PERFORMER "Unknown Artist"
    INDEX 01 00:00:00
FILE "08.wav" WAVE
  TRACK 08 AUDIO
    TITLE "Track08"
    PERFORMER "Unknown Artist"
    INDEX 01 00:00:00
FILE "09.wav" WAVE
  TRACK 09 AUDIO
    TITLE "Track09"
    PERFORMER "Unknown Artist"
    INDEX 01 00:00:00
  TRACK 10 AUDIO
    TITLE "Track10"
    PERFORMER "Unknown Artist"
    INDEX 00 04:38:61
FILE "10.wav" WAVE
    INDEX 01 00:00:00
FILE "11.wav" WAVE
  TRACK 11 AUDIO
    TITLE "Track11"
    PERFORMER "Unknown Artist"
    INDEX 01 00:00:00


Правила, инструкции, FAQ!!!
Торрент  Добавлен [26 июн 2020, 17:03] Скачать торрент Магнет ссылка
Скачать торрент
[ Размер 14.17 КБ / Просмотров 10 ]

Статус
Проверен 
 
Размер  335.21 МБ
Приватный: Нет (DHT включён)
.torrent скачан  0
 


     Отправить личное сообщение
   
Страница 1 из 1
Показать сообщения за:  Поле сортировки  
Начать новую тему Ответить на тему


Сейчас этот форум просматривают: нет зарегистрированных пользователей и гости: 0


Вы не можете начинать темы
Вы не можете отвечать на сообщения
Вы не можете редактировать свои сообщения
Вы не можете удалять свои сообщения
Вы не можете добавлять вложения

Перейти:  
cron