Начать новую тему Ответить на тему
Статистика раздачи
Размер: 365.73 МБ | Добавлен: 26 июн 2020, 20:03 | Скачали: 0
Сидеров: 0  [0 байт/сек]    Личеров: 0  [0 байт/сек]
Пред. тема | След. тема 

Автор
Сообщение

СообщениеДобавлено: 26 июн 2020, 20:03 

Ответить с цитатой 

[:SITD:] - Snuff EP
Жанр: Industrial/EBM
Год выпуска диска: 2002
Производитель диска: Германия
Аудио кодек: FLAC
Тип рипа: image+.cue
Битрейт аудио: lossless
Продолжительность: 50:02
Трэклист:
01. Snuff Machinery [Machine In Motion] 6:35
02. Hurt [Club Version] 4:40
03. Snuff Machinery [9mm RMX by A. Deal & T. Schmidt] 5:01
04. Mortal [Radiation] 5:14
05. Snuff Machinery [RMX by Megadump] 6:33
06. Hurt [Extended] 6:38
07. Mortal [RMX by Solitary Experiments] 4:52
08. Snuff Machinery [RMX by Pzycho Bitch] 4:42
09. Snuff Machinery [Club Version] 5:35
Доп. информация:
Exact Audio Copy V0.99 prebeta 3 from 28. July 2007
EAC extraction logfile from 5. March 2008, 21:00
[:SITD:] / Snuff EP
Used drive : MATSHITAUJ-840D Adapter: 1 ID: 0
Read mode : Secure
Utilize accurate stream : Yes
Defeat audio cache : Yes
Make use of C2 pointers : No
Read offset correction : 102
Overread into Lead-In and Lead-Out : No
Fill up missing offset samples with silence : Yes
Delete leading and trailing silent blocks : No
Null samples used in CRC calculations : Yes
Used interface : Installed external ASPI interface
Used output format : Internal WAV Routines
Sample format : 44.100 Hz; 16 Bit; Stereo
TOC of the extracted CD
Track | Start | Length | Start sector | End sector
---------------------------------------------------------
1 | 0:00.00 | 6:37.23 | 0 | 29797
2 | 6:37.23 | 4:41.20 | 29798 | 50892
3 | 11:18.43 | 4:59.29 | 50893 | 73346
4 | 16:17.72 | 5:15.67 | 73347 | 97038
5 | 21:33.64 | 6:35.19 | 97039 | 126682
6 | 28:09.08 | 6:39.65 | 126683 | 156672
7 | 34:48.73 | 4:54.27 | 156673 | 178749
8 | 39:43.25 | 4:44.15 | 178750 | 200064
9 | 44:27.40 | 5:35.32 | 200065 | 225221
Range status and errors
Selected range
Filename C:\Media\!New\[ SITD ] - Snuff EP.wav
Peak level 100.0 %
Range quality 100.0 %
Copy CRC 0433572B
Copy OK
No errors occurred
AccurateRip summary
Track 1 not present in database
Track 2 not present in database
Track 3 not present in database
Track 4 not present in database
Track 5 not present in database
Track 6 not present in database
Track 7 not present in database
Track 8 not present in database
Track 9 not present in database
None of the tracks are present in the AccurateRip database
End of status report
Правила, инструкции, FAQ!!!
Торрент  Добавлен [26 июн 2020, 20:03] Скачать торрент Магнет ссылка
Скачать торрент
[ Размер 14.88 КБ / Просмотров 8 ]

Статус
Проверен 
 
Размер  365.73 МБ
Приватный: Нет (DHT включён)
.torrent скачан  0
 


     Отправить личное сообщение
   
Страница 1 из 1
Показать сообщения за:  Поле сортировки  
Начать новую тему Ответить на тему


Сейчас этот форум просматривают: нет зарегистрированных пользователей и гости: 0


Вы не можете начинать темы
Вы не можете отвечать на сообщения
Вы не можете редактировать свои сообщения
Вы не можете удалять свои сообщения
Вы не можете добавлять вложения

Перейти:  
cron