Начать новую тему Ответить на тему
Статистика раздачи
Размер: 332.28 МБ | Добавлен: 26 июн 2020, 20:03 | Скачали: 0
Сидеров: 0  [0 байт/сек]    Личеров: 0  [0 байт/сек]
Пред. тема | След. тема 

Автор
Сообщение

СообщениеДобавлено: 26 июн 2020, 20:03 

Ответить с цитатой 

[:SITD:] - Richtfest MCD
Жанр: Industrial/EBM
Год выпуска диска: 2005
Производитель диска: Германия
Аудио кодек: FLAC
Тип рипа: image+.cue
Битрейт аудио: lossless
Продолжительность: 45:10
Трэклист:
01 Richtfest (single version) 06:17
02 Richtfest (Rmx by Suicide Commando) 06:43
03 Asphyxiation 04:08
04 Richtfest (Rmx by Namnambulu) 05:32
05 Richtfest (Extended) 07:36
06 Decoy (feat. The Retrosic) 07:51
07 Richtfest (Rmx by Destroid / Daniel Myer) 07:01
Доп. информация:
Exact Audio Copy V0.99 prebeta 3 from 28. July 2007
EAC extraction logfile from 5. March 2008, 22:47
[:SITD:] / Richtfest MCD
Used drive : MATSHITAUJ-840D Adapter: 1 ID: 0
Read mode : Secure
Utilize accurate stream : Yes
Defeat audio cache : Yes
Make use of C2 pointers : No
Read offset correction : 102
Overread into Lead-In and Lead-Out : No
Fill up missing offset samples with silence : Yes
Delete leading and trailing silent blocks : No
Null samples used in CRC calculations : Yes
Used interface : Installed external ASPI interface
Used output format : Internal WAV Routines
Sample format : 44.100 Hz; 16 Bit; Stereo
TOC of the extracted CD
Track | Start | Length | Start sector | End sector
---------------------------------------------------------
1 | 0:00.00 | 6:16.48 | 0 | 28247
2 | 6:16.48 | 6:43.56 | 28248 | 58528
3 | 13:00.29 | 4:08.34 | 58529 | 77162
4 | 17:08.63 | 5:32.17 | 77163 | 102079
5 | 22:41.05 | 7:36.03 | 102080 | 136282
6 | 30:17.08 | 7:51.66 | 136283 | 171673
7 | 38:08.74 | 7:01.61 | 171674 | 203309
Range status and errors
Selected range
Filename C:\Media\!New\[ SITD ] - Richtfest MCD.wav
Peak level 100.0 %
Range quality 100.0 %
Copy CRC 91CA0C86
Copy OK
No errors occurred
AccurateRip summary
Track 1 accurately ripped (confidence 1) [2AC6B7DE]
Track 2 accurately ripped (confidence 1) [99FFF542]
Track 3 accurately ripped (confidence 1) [DE10E1C4]
Track 4 accurately ripped (confidence 1) [FCB3CB1C]
Track 5 accurately ripped (confidence 1) [9F771336]
Track 6 accurately ripped (confidence 1) [1FFA2FA7]
Track 7 accurately ripped (confidence 1) [AD2DB973]
All tracks accurately ripped
End of status report
Правила, инструкции, FAQ!!!
Торрент  Добавлен [26 июн 2020, 20:03] Скачать торрент Магнет ссылка
Скачать торрент
[ Размер 13.59 КБ / Просмотров 9 ]

Статус
Проверен 
 
Размер  332.28 МБ
Приватный: Нет (DHT включён)
.torrent скачан  0
 


     Отправить личное сообщение
   
Страница 1 из 1
Показать сообщения за:  Поле сортировки  
Начать новую тему Ответить на тему


Сейчас этот форум просматривают: нет зарегистрированных пользователей и гости: 0


Вы не можете начинать темы
Вы не можете отвечать на сообщения
Вы не можете редактировать свои сообщения
Вы не можете удалять свои сообщения
Вы не можете добавлять вложения

Перейти:  
cron