Начать новую тему Ответить на тему
Статистика раздачи
Размер: 521.63 МБ | Добавлен: 26 июн 2020, 17:10 | Скачали: 0
Сидеров: 0  [0 байт/сек]    Личеров: 0  [0 байт/сек]
Пред. тема | След. тема 

Автор
Сообщение

СообщениеДобавлено: 26 июн 2020, 17:10 

Ответить с цитатой 

KiEw - Exit #72
Жанр: Industrial/EBM/Powernoise
Год выпуска диска: 2005
Производитель диска: Out Of Line
Аудио кодек: FLAC
Тип рипа: image+.cue
Битрейт аудио: lossless
Продолжительность: 78:08
Трэклист:
01. Anstaltsordnung [Remix]
02. Exit
03. Harvey [Skinner Remix]
04. Gabriel
05. Odessa [Venus Fly-Trap Remix]
06. Flügel [E 605 Break Da Wings Remix]
07. Himmel
08. Bandaufzeichnung
09. Synapsenbrecher [Synapscape Lapdance Remix]
10. Rush
11. Groundhog
12. Nachtwache [Presto-Remix]
13. Himmel [Iszoloscope Remix]
14. Archiveintrag 144
15. Hirnstrom
16. Gabriel [Architect Remix]
17. Odessa [Short Stay Mix]
18. Wenn Sie [D. Kowalczyk Remix]
19. Flügel [Southern Hemisphere Mixdown]
20. Therapieabsage
Доп. информация:
Exact Audio Copy V0.99 prebeta 4 from 23. January 2008
Отчёт EAC об извлечении, выполненном 23. июля 2008, 18:10
KiEw / Exit #72
Дисковод: MATSHITADVD-RAM UJ-841S Adapter: 1 ID: 0
Режим чтения : Достоверность
Использование точного потока : Да
Отключение кэша аудио : Да
Использование указателей C2 : Нет
Коррекция смещения при чтении : 102
Способность читать области Lead-in и Lead-out : Нет
Заполнение пропущенных сэмплов тишиной : Да
Удаление блоков с тишиной в начале и конце : Нет
При вычислениях CRC использовались нулевые сэмплы : Да
Интерфейс : Встроенный Win32-интерфейс для Win NT/2000
Выходной формат : Пользовательский кодировщик
Выбранный битрейт : 768 kBit/s
Качество : Высокий
Добавление ID3-тэга : Нет
Утилита сжатия : C:\Program Files\Exact Audio Copy\FLAC\FLAC.EXE
Дополнительные параметры : -6 -V -T "ARTIST=%a" -T "TITLE=%t" -T "ALBUM=%g" -T "DATE=%y" -T "TRACKNUMBER=%n" -T "GENRE=%m" -T "COMMENT=%e" %s -o %d
TOC извлечённого CD
Трек | Старт | Длительность | Начальный сектор | Конечный сектор
---------------------------------------------------------------------
1 | 0:00.00 | 4:21.10 | 0 | 19584
2 | 4:21.10 | 3:41.34 | 19585 | 36193
3 | 8:02.44 | 7:13.38 | 36194 | 68706
4 | 15:16.07 | 6:14.69 | 68707 | 96825
5 | 21:31.01 | 4:27.63 | 96826 | 116913
6 | 25:58.64 | 6:45.19 | 116914 | 147307
7 | 32:44.08 | 4:40.14 | 147308 | 168321
8 | 37:24.22 | 0:54.28 | 168322 | 172399
9 | 38:18.50 | 4:05.06 | 172400 | 190780
10 | 42:23.56 | 2:35.07 | 190781 | 202412
11 | 44:58.63 | 3:01.72 | 202413 | 216059
12 | 48:00.60 | 4:50.00 | 216060 | 237809
13 | 52:50.60 | 6:02.48 | 237810 | 265007
14 | 58:53.33 | 0:59.11 | 265008 | 269443
15 | 59:52.44 | 2:34.34 | 269444 | 281027
16 | 62:27.03 | 4:18.01 | 281028 | 300378
17 | 66:45.04 | 2:27.62 | 300379 | 311465
18 | 69:12.66 | 4:22.10 | 311466 | 331125
19 | 73:35.01 | 4:15.11 | 331126 | 350261
20 | 77:50.12 | 0:18.08 | 350262 | 351619
Характеристики диапазона извлечения и сообщения об ошибках
Выбранный диапазон
Имя файла D:\Downloads\KiEw - Exit #72\KiEw - Exit #72.wav
Пиковый уровень 99.9 %
Качество диапазона 100.0 %
CRC копии 98A97C09
Копирование... OK
Ошибок не произошло
Конец отчёта
Правила, инструкции, FAQ!!!
Торрент  Добавлен [26 июн 2020, 17:10] Скачать торрент Магнет ссылка
Скачать торрент
[ Размер 10.79 КБ / Просмотров 3 ]

Статус
Проверен 
 
Размер  521.63 МБ
Приватный: Нет (DHT включён)
.torrent скачан  0
 


     Отправить личное сообщение
   
Страница 1 из 1
Показать сообщения за:  Поле сортировки  
Начать новую тему Ответить на тему


Сейчас этот форум просматривают: нет зарегистрированных пользователей и гости: 0


Вы не можете начинать темы
Вы не можете отвечать на сообщения
Вы не можете редактировать свои сообщения
Вы не можете удалять свои сообщения
Вы не можете добавлять вложения

Перейти:  
cron