Начать новую тему Ответить на тему
Статистика раздачи
Размер: 452.66 МБ | Добавлен: 26 июн 2020, 16:54 | Скачали: 0
Сидеров: 0  [0 байт/сек]    Личеров: 0  [0 байт/сек]
Пред. тема | След. тема 

Автор
Сообщение

СообщениеДобавлено: 26 июн 2020, 16:54 

Ответить с цитатой 

KiEw - Audiotherapy
Жанр: Industrial/EBM/Powernoise
Год выпуска диска: 2004
Производитель диска: Out Of Line, Germany
Аудио кодек: FLAC
Тип рипа: image+.cue
Битрейт аудио: lossless
Продолжительность: 70:37
Трэклист:
Код:
CD-01   Anstaltsordnung (2:37)
CD-02   Nachtwache (4:13)
CD-03   Wenn Sie (4:24)
CD-04   Gabriel (5:03)
CD-05   Retrograd IV (3:15)
CD-06   Harvey (4:32)
CD-07   Lost Alamos (3:53)
CD-08   Das Fett (3:43)
CD-09   Retrograd V (2:21)
CD-10   Farbfetzen (5:14)
CD-11   Degenerationsprogramm (4:30)
CD-12   Kessel (3:53)
CD-13   Retrograd VI (3:41)
CD-14   Synapsenbrecher (3:50)
CD-15   Zentrifuge (Inertia Mix) (6:54)
    Remix - Spherical Disrupted
CD-16   Anstalt (Cold Slomo Mix) (4:53)
    Remix - Tweakerray
CD-17   Final Therapy (3:03)
Доп. информация: Этот релиз имеет бонусный DVD, который лежит здесь: https://rutracker.org/forum/viewtopic.php?p=16363146#16363146
Код:
Exact Audio Copy V0.99 prebeta 4 from 23. January 2008
Отчёт EAC об извлечении, выполненном 5. января 2009, 22:39
KiEw / Audiotherapy
Дисковод: MATSHITADVD-RAM UJ-841S   Adapter: 1  ID: 0
Режим чтения                 : Достоверность
Использование точного потока : Да
Отключение кэша аудио        : Да
Использование указателей C2  : Нет
Коррекция смещения при чтении                     : 102
Способность читать области Lead-in и Lead-out     : Нет
Заполнение пропущенных сэмплов тишиной            : Да
Удаление блоков с тишиной в начале и конце        : Нет
При вычислениях CRC использовались нулевые сэмплы : Да
Интерфейс                                         : Встроенный Win32-интерфейс для Win NT/2000
Выходной формат          : Пользовательский кодировщик
Выбранный битрейт        : 768 kBit/s
Качество                 : Высокий
Добавление ID3-тэга      : Нет
Утилита сжатия           : C:\Program Files\Exact Audio Copy\FLAC\FLAC.EXE
Дополнительные параметры : -6 -V -T "ARTIST=%a" -T "TITLE=%t" -T "ALBUM=%g" -T "DATE=%y" -T "TRACKNUMBER=%n" -T "GENRE=%m" -T "COMMENT=%e" %s -o %d
TOC извлечённого CD
     Трек |   Старт  | Длительность | Начальный сектор | Конечный сектор
    ---------------------------------------------------------------------
       1  |  0:00.00 |    2:39.55   |           0      |      11979
       2  |  2:39.55 |    4:15.08   |       11980      |      31112
       3  |  6:54.63 |    4:25.71   |       31113      |      51058
       4  | 11:20.59 |    5:05.10   |       51059      |      73943
       5  | 16:25.69 |    3:16.68   |       73944      |      88711
       6  | 19:42.62 |    4:33.69   |       88712      |     109255
       7  | 24:16.56 |    3:54.65   |      109256      |     126870
       8  | 28:11.46 |    3:45.43   |      126871      |     143788
       9  | 31:57.14 |    2:23.13   |      143789      |     154526
      10  | 34:20.27 |    5:16.63   |      154527      |     178289
      11  | 39:37.15 |    4:32.63   |      178290      |     198752
      12  | 44:10.03 |    3:55.49   |      198753      |     216426
      13  | 48:05.52 |    3:43.21   |      216427      |     233172
      14  | 51:48.73 |    3:52.54   |      233173      |     250626
      15  | 55:41.52 |    6:56.62   |      250627      |     281888
      16  | 62:38.39 |    4:55.46   |      281889      |     304059
      17  | 67:34.10 |    3:03.59   |      304060      |     317843
Характеристики диапазона извлечения и сообщения об ошибках
Выбранный диапазон
     Имя файла D:\Downloads\KiEw - Audiotherapy\KiEw - Audiotherapy.wav
     Пиковый уровень 98.2 %
     Качество диапазона 100.0 %
     CRC копии F3ED2355
     Копирование... OK
Ошибок не произошло
Конец отчёта
Правила, инструкции, FAQ!!!
Торрент  Добавлен [26 июн 2020, 16:54] Скачать торрент Магнет ссылка
Скачать торрент
[ Размер 18.32 КБ / Просмотров 4 ]

Статус
Проверен 
 
Размер  452.66 МБ
Приватный: Нет (DHT включён)
.torrent скачан  0
 


     Отправить личное сообщение
   
Страница 1 из 1
Показать сообщения за:  Поле сортировки  
Начать новую тему Ответить на тему


Сейчас этот форум просматривают: нет зарегистрированных пользователей и гости: 0


Вы не можете начинать темы
Вы не можете отвечать на сообщения
Вы не можете редактировать свои сообщения
Вы не можете удалять свои сообщения
Вы не можете добавлять вложения

Перейти:  
cron