Начать новую тему Ответить на тему
Статистика раздачи
Размер: 407.31 МБ | Добавлен: 26 июн 2020, 20:44 | Скачали: 0
Сидеров: 0  [0 байт/сек]    Личеров: 0  [0 байт/сек]
Пред. тема | След. тема 

Автор
Сообщение

СообщениеДобавлено: 26 июн 2020, 20:44 

Ответить с цитатой 

Painbastard - Nyctophobia
Страна: Германия
Жанр: Industrial/EBM
Год выпуска: 2007
Формат: FLAC (image + .cue)
Битрейт аудио: lossless
Продолжительность: 56 : 28
Трэклист:
01 Nyctophobia | 7:17
02 Psychological disintegration | 5:49
03 Torn | feat. & remixed by DIORAMA | 5:23
04 MenschFeind | feat. DIARY OF DREAMS | 5:58
05 Nyctophobia | remixed by [:S.I.T.D.:] | 5:52
06 Nyctophobia | remixed by ASSEMBLAGE 23 | 6:34
07 Nyctophobia | Eleven Years Mix by IN THE NURSERY | 5:12
08 Nyctophobia | remixed by THIS MORN'OMNIA | 4:29
09 Nyctophobia | remixed by STRAFTANZ | 4:28
10 Nyctophobia| remixed by SUPREME COURT | 5:42
Доп. информация:
KLANGFUSION Vol.1 is an exclusive melange of two brand new MCDs: [:SITD:]’s “kreuz:gang” and Painbastard’s “Nyctophobia”. This combined release serves as a harbinger for the upcoming albums “Bestie: Mensch” by [:SITD:] and “Borderline” by Painbastard, and it is also a brilliant overture for [:SITD:]’s Bestie Mensch Tour 2007 – feat. Painbastard & special guest Destroid.
The two MCDs will not be available in the shops on their own, only in this special combination. The KLANGFUSION 2 MCD set – packaged in an attractive six panel digipak and cardboard slipcase – is limited to 3000 and contains 18 Tracks (eight by [:SITD:], ten by Painbastard) – a total runtime of almost 100 minutes. And this set offers more than just the regular music by both projects; to create something very special here, not just [:SITD:] and Painbastard have collaborated and remixed each others tracks, they also asked their label patrons and friends for contributions. The list of collaborators reads like a Who is who of Germany’s dark wave scene: Diary of Dreams, Assemblage 23, In The Nursery, Diorama feat. Klangstabil & Va:See, Rotersand, This Morn’Omnia, Angels & Agony, Agonoize, Supreme Court and Straftanz.
A unique highlight of this upcoming double MCD will certainly be the exclusive Painbastard remix of Diary of Dreams classic “MenschFeind”, containing new original vocals by Adrian Hates himself. And even though KLANGFUSION is a conjunction of two MCDs by two very different bands, their spiritual kinship creates an absolutely homogeneous uber-release of unequaled quality.
Exact Audio Copy V0.99 prebeta 3 from 28. July 2007
EAC extraction logfile from 19. January 2008, 12:03
Painbastard / Nyctophobia
Used drive : MATSHITAUJ-840D Adapter: 1 ID: 0
Read mode : Secure
Utilize accurate stream : Yes
Defeat audio cache : Yes
Make use of C2 pointers : No
Read offset correction : 102
Overread into Lead-In and Lead-Out : No
Fill up missing offset samples with silence : Yes
Delete leading and trailing silent blocks : No
Null samples used in CRC calculations : Yes
Used interface : Installed external ASPI interface
Used output format : Internal WAV Routines
Sample format : 44.100 Hz; 16 Bit; Stereo
TOC of the extracted CD
Track | Start | Length | Start sector | End sector
---------------------------------------------------------
1 | 0:00.00 | 7:16.58 | 0 | 32757
2 | 7:16.58 | 5:50.08 | 32758 | 59015
3 | 13:06.66 | 4:59.35 | 59016 | 81475
4 | 18:06.26 | 5:59.73 | 81476 | 108473
5 | 24:06.24 | 5:53.52 | 108474 | 135000
6 | 30:00.01 | 6:36.01 | 135001 | 164701
7 | 36:36.02 | 5:13.48 | 164702 | 188224
8 | 41:49.50 | 4:30.64 | 188225 | 208538
9 | 46:20.39 | 4:29.41 | 208539 | 228754
10 | 50:50.05 | 5:43.70 | 228755 | 254549
Range status and errors
Selected range
Filename C:\Media\!New\Painbastard - Nyctophobia.wav
Peak level 100.0 %
Range quality 100.0 %
Copy CRC 8B43CF06
Copy OK
No errors occurred
AccurateRip summary
Track 1 not present in database
Track 2 not present in database
Track 3 not present in database
Track 4 not present in database
Track 5 not present in database
Track 6 not present in database
Track 7 not present in database
Track 8 not present in database
Track 9 not present in database
Track 10 not present in database
None of the tracks are present in the AccurateRip database
End of status report
Чуть попозже, выложу диск [:SITD:]
Правила, инструкции, FAQ!!!
Торрент  Добавлен [26 июн 2020, 20:44] Скачать торрент Магнет ссылка
Скачать торрент
[ Размер 16.52 КБ / Просмотров 10 ]

Статус
Проверен 
 
Размер  407.31 МБ
Приватный: Нет (DHT включён)
.torrent скачан  0
 


     Отправить личное сообщение
   
Страница 1 из 1
Показать сообщения за:  Поле сортировки  
Начать новую тему Ответить на тему


Сейчас этот форум просматривают: нет зарегистрированных пользователей и гости: 0


Вы не можете начинать темы
Вы не можете отвечать на сообщения
Вы не можете редактировать свои сообщения
Вы не можете удалять свои сообщения
Вы не можете добавлять вложения

Перейти:  
cron