Начать новую тему Ответить на тему
Статистика раздачи
Размер: 317.55 МБ | Добавлен: 26 июн 2020, 19:52 | Скачали: 0
Сидеров: 0  [0 байт/сек]    Личеров: 0  [0 байт/сек]
Пред. тема | След. тема 

Автор
Сообщение

СообщениеДобавлено: 26 июн 2020, 19:52 

Ответить с цитатой 

Nitzer Ebb / Big Hit ( Japan press PCCY-00728 )
Жанр: Industrial, EBM
Носитель: CD
Страна-производитель диска (релиза): Japan
Год издания: 1995
Издатель (лейбл): Mute Records
Номер по каталогу: PCCY-00728
Страна исполнителя (группы): UK
Аудиокодек: FLAC (*.flac)
Тип рипа: image+.cue
Битрейт аудио: lossless
Продолжительность: 00:46:44
Источник: собственный рип
Наличие сканов в содержимом раздачи: да
Треклист:
1. Cherry Blossom 5:30
2. Hear Me Say 4:06
3. Kick It 3:39
4. I Thought 5:16
5. Floodwater 3:35
6. Border Talk 3:24
7. In Decline 5:36
8. Living Out Of A Bag 5:38
9. Boy 4:17
10. Our Own World 5:36
Код:
Exact Audio Copy V1.3 from 2. September 2016
Отчёт EAC об извлечении, выполненном 14. марта 2019, 11:52
Nitzer Ebb / Big Hit ( PCCY-00728 ) - 1995
Дисковод: PIONEER BD-RW   BDR-TD03   Adapter: 1  ID: 0
Режим чтения                 : Достоверность
Использование точного потока : Да
Отключение кэша аудио        : Да
Использование указателей C2  : Нет
Коррекция смещения при чтении                     : 667
Способность читать области Lead-in и Lead-out     : Нет
Заполнение пропущенных сэмплов тишиной            : Да
Удаление блоков с тишиной в начале и конце        : Нет
При вычислениях CRC использовались нулевые сэмплы : Да
Интерфейс                                         : Встроенный Win32-интерфейс для Win NT/2000
Выходной формат          : Пользовательский кодировщик
Выбранный битрейт        : 128 kBit/s
Качество                 : Высокий
Добавление ID3-тега      : Нет
Утилита сжатия           : C:\Program Files (x86)\Exact Audio Copy\Flac\flac.exe
Дополнительные параметры : -V -8 -T "Date=%year%" -T "Genre=%genre%" %source%
TOC извлечённого CD
     Трек |   Старт  | Длительность | Начальный сектор | Конечный сектор
    ---------------------------------------------------------------------
       1  |  0:00.00 |    5:30.12   |           0      |      24761
       2  |  5:30.12 |    4:07.00   |       24762      |      43286
       3  |  9:37.12 |    3:38.70   |       43287      |      59706
       4  | 13:16.07 |    5:16.23   |       59707      |      83429
       5  | 18:32.30 |    3:35.50   |       83430      |      99604
       6  | 22:08.05 |    3:25.10   |       99605      |     114989
       7  | 25:33.15 |    5:36.65   |      114990      |     140254
       8  | 31:10.05 |    5:41.02   |      140255      |     165831
       9  | 36:51.07 |    4:17.20   |      165832      |     185126
      10  | 41:08.27 |    5:36.28   |      185127      |     210354
Характеристики диапазона извлечения и сообщения об ошибках
Выбранный диапазон
     Имя файла I:\Rip\Nitzer Ebb - Big Hit ( PCCY-00728 ) - 1995\Nitzer Ebb - Big Hit ( PCCY-00728 ) - 1995.wav
     Пиковый уровень 99.2 %
     Скорость извлечения 4.2 X
     Качество диапазона 99.9 %
     CRC теста 96DF5303
     CRC копии 96DF5303
     Копирование... OK
Ошибок не произошло
AccurateRip: сводка
Трек  1  отсутствует в базе данных
Трек  2  отсутствует в базе данных
Трек  3  отсутствует в базе данных
Трек  4  отсутствует в базе данных
Трек  5  отсутствует в базе данных
Трек  6  отсутствует в базе данных
Трек  7  отсутствует в базе данных
Трек  8  отсутствует в базе данных
Трек  9  отсутствует в базе данных
Трек 10  отсутствует в базе данных
Ни одного трека нет в базе AccurateRip
Конец отчёта
---- CUETools DB Plugin V2.1.6
[CTDB TOCID: 32tysoPzJNqFwSe8JFAVYUVvKbM-] disk not present in database
Submit result: 32tysoPzJNqFwSe8JFAVYUVvKbM- has been uploaded
==== Контрольная сумма отчёта F8C04E8E19797445511235F7EBC84339109A6D561B463227C845F07901A27D3C ====
Front 242 - 05:22:09:12 Off ( Japan press ALCB-851 ) https://rutracker.org/forum/viewtopic.php?t=5704298
Front 242 - 06:21:03:11 UP EVIL (Japan press 2CD, ALCB 849/850 ) https://rutracker.org/forum/viewtopic.php?t=5704309
Nitzer Ebb - Ebbhead ( Japan press ALCB-395 ) https://rutracker.org/forum/viewtopic.php?t=5704318
KMFDM - Symbols ( Japan press CTCR 17035 ) https://rutracker.org/forum/viewtopic.php?t=5704285
Bourbonese Qualk - On Uncertainty https://rutracker.org/forum/viewtopic.php?t=2187389
Lex Talionis - Into The Shade https://rutracker.org/forum/viewtopic.php?t=4177950
VA - Capitol Hell (The Music Of Washington D.C.) https://rutracker.org/forum/viewtopic.php?t=5705412
VA - The Funnel Zone (The Music of Miami Florida) https://rutracker.org/forum/viewtopic.php?t=5705419
VA - Dossiers (Chrome, Shock Therapy, Marque Moon, Radius) https://rutracker.org/forum/viewtopic.php?t=5705622
VA - Dossiers II (Helios Creed, Column One, Front Line Assembly) https://rutracker.org/forum/viewtopic.php?t=5705642
Правила, инструкции, FAQ!!!
Торрент  Добавлен [26 июн 2020, 19:52] Скачать торрент Магнет ссылка
Скачать торрент
[ Размер 13.41 КБ / Просмотров 8 ]

Статус
Проверен 
 
Размер  317.55 МБ
Приватный: Нет (DHT включён)
.torrent скачан  0
 


     Отправить личное сообщение
   
Страница 1 из 1
Показать сообщения за:  Поле сортировки  
Начать новую тему Ответить на тему


Сейчас этот форум просматривают: нет зарегистрированных пользователей и гости: 0


Вы не можете начинать темы
Вы не можете отвечать на сообщения
Вы не можете редактировать свои сообщения
Вы не можете удалять свои сообщения
Вы не можете добавлять вложения

Перейти:  
cron