Начать новую тему Ответить на тему
Статистика раздачи
Размер: 406.53 МБ | Добавлен: 26 июн 2020, 19:05 | Скачали: 0
Сидеров: 0  [0 байт/сек]    Личеров: 0  [0 байт/сек]
Пред. тема | След. тема 

Автор
Сообщение

СообщениеДобавлено: 26 июн 2020, 19:05 

Ответить с цитатой 

Mlada Fronta - Tribal Apocalyptic Trance
Страна: France
Жанр: Industrial, EBM
Год выпуска: 1995
Формат: FLAC (tracks+.cue)
Битрейт аудио: lossless
Продолжительность: 1:03:39
Трэклист:
1 Mental Atmosphere (1:09)
2 Industrial Visions (4:18)
3 Spiritual Visions (6:44)
4 Apocalyptic Visions (5:53)
5 Industrial Australia (5:32)
6 Spiritual Tibet (6:40)
7 Apocalyptic America (5:45)
8 Industrial Trance (4:35)
9 Spiritual Trance (7:39)
10 Apocalyptic Trance (12:27)
11 Khôômii (2:52)
Доп. информация:
Label: Tribal Productions
Catalog#: TP.MF.III
Notes: the title of this release is also known as "My Visions '95" which is the follow-up to his '93 composition "My Visions"
Код:
Exact Audio Copy V0.99 prebeta 4 from 23. January 2008
EAC extraction logfile from 29. September 2008, 20:37
Mlada Fronta / Tribal Apocalyptic Trance
Used drive  : _NEC    DVD_RW ND-3550A   Adapter: 0  ID: 0
Read mode               : Secure
Utilize accurate stream : Yes
Defeat audio cache      : Yes
Make use of C2 pointers : No
Read offset correction                      : 48
Overread into Lead-In and Lead-Out          : No
Fill up missing offset samples with silence : Yes
Delete leading and trailing silent blocks   : No
Null samples used in CRC calculations       : Yes
Used interface                              : Installed external ASPI interface
Gap handling                                : Appended to previous track
Used output format              : User Defined Encoder
Selected bitrate                : 1024 kBit/s
Quality                         : High
Add ID3 tag                     : No
Command line compressor         : D:\Programs\Tools\_Exact Audio Copy\FLAC\FLAC.EXE
Additional command line options : -8 -V -T "ARTIST=%a" -T "TITLE=%t" -T "ALBUM=%g" -T "DATE=%y" -T "TRACKNUMBER=%n" -T "GENRE=%m" -T "COMMENT=%e" %s -o %d
TOC of the extracted CD
     Track |   Start  |  Length  | Start sector | End sector
    ---------------------------------------------------------
        1  |  0:00.32 |  1:09.48 |        32    |     5254
        2  |  1:10.05 |  4:18.02 |      5255    |    24606
        3  |  5:28.07 |  6:44.00 |     24607    |    54906
        4  | 12:12.07 |  5:53.48 |     54907    |    81429
        5  | 18:05.55 |  5:32.22 |     81430    |   106351
        6  | 23:38.02 |  6:40.68 |    106352    |   136419
        7  | 30:18.70 |  5:45.32 |    136420    |   162326
        8  | 36:04.27 |  4:35.43 |    162327    |   182994
        9  | 40:39.70 |  7:39.62 |    182995    |   217481
       10  | 48:19.57 | 12:27.25 |    217482    |   273531
       11  | 60:47.07 |  2:52.25 |    273532    |   286456
Track  1
     Filename G:\EAC Temporare\01 Mental Atmosphere.wav
     Pre-gap length  0:00:02.32
     Peak level 95.6 %
     Track quality 100.0 %
     Test CRC 79F18E61
     Copy CRC 79F18E61
     Accurately ripped (confidence 2)  [9C7AC4A7]
     Copy OK
Track  2
     Filename G:\EAC Temporare\02 Industrial Visions.wav
     Peak level 98.3 %
     Track quality 99.9 %
     Test CRC 451B26F0
     Copy CRC 451B26F0
     Accurately ripped (confidence 2)  [B0A0A1CC]
     Copy OK
Track  3
     Filename G:\EAC Temporare\03 Spiritual Visions.wav
     Peak level 98.3 %
     Track quality 100.0 %
     Test CRC CA839ABF
     Copy CRC CA839ABF
     Accurately ripped (confidence 2)  [F44CA301]
     Copy OK
Track  4
     Filename G:\EAC Temporare\04 Apocalyptic Visions.wav
     Peak level 98.3 %
     Track quality 99.9 %
     Test CRC 7C81671A
     Copy CRC 7C81671A
     Accurately ripped (confidence 2)  [A978A168]
     Copy OK
Track  5
     Filename G:\EAC Temporare\05 Industrial Australia.wav
     Peak level 98.3 %
     Track quality 100.0 %
     Test CRC 2E18F335
     Copy CRC 2E18F335
     Accurately ripped (confidence 2)  [EE2DE61E]
     Copy OK
Track  6
     Filename G:\EAC Temporare\06 Spiritual Tibet.wav
     Pre-gap length  0:00:01.00
     Peak level 98.3 %
     Track quality 100.0 %
     Test CRC 8EC17590
     Copy CRC 8EC17590
     Accurately ripped (confidence 2)  [3648D391]
     Copy OK
Track  7
     Filename G:\EAC Temporare\07 Apocalyptic America.wav
     Peak level 98.3 %
     Track quality 100.0 %
     Test CRC D51D996F
     Copy CRC D51D996F
     Accurately ripped (confidence 2)  [D653CBDE]
     Copy OK
Track  8
     Filename G:\EAC Temporare\08 Industrial Trance.wav
     Peak level 98.3 %
     Track quality 100.0 %
     Test CRC 78951257
     Copy CRC 78951257
     Accurately ripped (confidence 2)  [AA575C06]
     Copy OK
Track  9
     Filename G:\EAC Temporare\09 Spiritual Trance.wav
     Pre-gap length  0:00:00.73
     Peak level 98.3 %
     Track quality 100.0 %
     Test CRC DB76F80D
     Copy CRC DB76F80D
     Accurately ripped (confidence 2)  [F219E215]
     Copy OK
Track 10
     Filename G:\EAC Temporare\10 Apocalyptic Trance.wav
     Peak level 98.3 %
     Track quality 99.8 %
     Test CRC 1DDC6A3D
     Copy CRC 1DDC6A3D
     Cannot be verified as accurate (confidence 2)  [B15B3E7D], AccurateRip returned [CF293488]
     Copy OK
Track 11
     Filename G:\EAC Temporare\11 Khoomii.wav
     Peak level 62.4 %
     Track quality 99.9 %
     Test CRC 33A683AF
     Copy CRC 33A683AF
     Accurately ripped (confidence 2)  [38921612]
     Copy OK
 0 track(s) accurately ripped
 1 track(s) could not be verified as accurate
Some tracks could not be verified as accurate
No errors occurred
End of status report
на раздаче ВСЕГДА в нерабочее время (вечер, ночь, выходные), в остальное время как получится
Правила, инструкции, FAQ!!!
Торрент  Добавлен [26 июн 2020, 19:05] Скачать торрент Магнет ссылка
Скачать торрент
[ Размер 17.38 КБ / Просмотров 8 ]

Статус
Проверен 
 
Размер  406.53 МБ
Приватный: Нет (DHT включён)
.torrent скачан  0
 


     Отправить личное сообщение
   
Страница 1 из 1
Показать сообщения за:  Поле сортировки  
Начать новую тему Ответить на тему


Сейчас этот форум просматривают: нет зарегистрированных пользователей и гости: 0


Вы не можете начинать темы
Вы не можете отвечать на сообщения
Вы не можете редактировать свои сообщения
Вы не можете удалять свои сообщения
Вы не можете добавлять вложения

Перейти:  
cron