Начать новую тему Ответить на тему
Статистика раздачи
Размер: 328 МБ | Добавлен: 26 июн 2020, 17:30 | Скачали: 0
Сидеров: 0  [0 байт/сек]    Личеров: 0  [0 байт/сек]
Пред. тема | След. тема 

Автор
Сообщение

СообщениеДобавлено: 26 июн 2020, 17:30 

Ответить с цитатой 

Megadump - Futura
Жанр: Industrial / EBM
Год выпуска диска: 2002
Производитель диска: Германия
Аудио кодек: APE
Тип рипа: image+.cue
Битрейт аудио: lossless
Трэклист:
01-The Face Behind (4:12)
02-Zeitsprung (4:16)
03-Superhuman (4:36)
04-Welt Aus Glas (4:35)
05-Home (4:15)
06-Lache Nur! (4:20)
07-Resig/Nation (4:08)
08-Life Bizarre (4:38)
09-Heartbeat (3:35)
10-1969 (4:03)
11-The Face Behind (Alpha Mix) (4:33)
Код:
Exact Audio Copy V0.99 prebeta 5 from 4. May 2009
Отчёт EAC об извлечении, выполненном 23. июля 2009, 18:42
Megadump / Futura
Дисковод: Optiarc DVD RW AD-7201S   Adapter: 1  ID: 1
Режим чтения                 : Достоверность
Использование точного потока : Да
Отключение кэша аудио        : Да
Использование указателей C2  : Нет
Коррекция смещения при чтении                     : 48
Способность читать области Lead-in и Lead-out     : Нет
Заполнение пропущенных сэмплов тишиной            : Да
Удаление блоков с тишиной в начале и конце        : Нет
При вычислениях CRC использовались нулевые сэмплы : Да
Интерфейс                                         : Установленный внешний ASPI-интерфейс
Выходной формат : Внутренние WAV-операции
Формат сэмплов  : 44.100 Гц; 16 бит; стерео
TOC извлечённого CD
     Трек |   Старт  | Длительность | Начальный сектор | Конечный сектор
    ---------------------------------------------------------------------
       1  |  0:00.00 |    4:12.43   |           0      |      18942
       2  |  4:12.43 |    4:16.00   |       18943      |      38142
       3  |  8:28.43 |    4:36.29   |       38143      |      58871
       4  | 13:04.72 |    4:35.42   |       58872      |      79538
       5  | 17:40.39 |    4:15.39   |       79539      |      98702
       6  | 21:56.03 |    4:20.43   |       98703      |     118245
       7  | 26:16.46 |    4:08.09   |      118246      |     136854
       8  | 30:24.55 |    4:38.48   |      136855      |     157752
       9  | 35:03.28 |    3:45.47   |      157753      |     174674
      10  | 38:49.00 |    4:03.20   |      174675      |     192919
      11  | 42:52.20 |    4:33.05   |      192920      |     213399
Характеристики диапазона извлечения и сообщения об ошибках
Выбранный диапазон
     Имя файла D:\Documents and Settings\Rodexx\Рабочий стол\Megadump - Futura\Megadump - Futura.wav
     Пиковый уровень 96.6 %
     Качество диапазона 100.0 %
     CRC копии 3C3BFB1C
     Копирование... OK
Ошибок не произошло
Конец отчёта
 
Label: Accession Records
Catalog#: A 042
Format: CD, Album
Country: Germany
Released: 19 Apr 2002
Genre: Electronic
Style: EBM
Credits: Artwork By [Design] - user.dx
Keyboards - Conny , Müller*
Photography - Silke Jochum
Programmed By - Conny , Müller*
Vocals - Müller*
Notes: Recorded at Megaline Studio Bochum
Mastered at Metarc Belgium
Правила, инструкции, FAQ!!!
Торрент  Добавлен [26 июн 2020, 17:30] Скачать торрент Магнет ссылка
Скачать торрент
[ Размер 13.5 КБ / Просмотров 12 ]

Статус
Проверен 
 
Размер  328 МБ
Приватный: Нет (DHT включён)
.torrent скачан  0
 


     Отправить личное сообщение
   
Страница 1 из 1
Показать сообщения за:  Поле сортировки  
Начать новую тему Ответить на тему


Сейчас этот форум просматривают: нет зарегистрированных пользователей и гости: 0


Вы не можете начинать темы
Вы не можете отвечать на сообщения
Вы не можете редактировать свои сообщения
Вы не можете удалять свои сообщения
Вы не можете добавлять вложения

Перейти:  
cron
cron