Начать новую тему Ответить на тему
Статистика раздачи
Размер: 419.31 МБ | Добавлен: 26 июн 2020, 20:03 | Скачали: 0
Сидеров: 0  [0 байт/сек]    Личеров: 0  [0 байт/сек]
Пред. тема | След. тема 

Автор
Сообщение

СообщениеДобавлено: 26 июн 2020, 20:03 

Ответить с цитатой 

[:SITD:] - Laughingstock
Жанр: Industrial/EBM
Год выпуска диска: 2003
Производитель диска: Германия
Аудио кодек: FLAC
Тип рипа: image+.cue
Битрейт аудио: lossless
Продолжительность: 55:05
Трэклист:
01. Single Version
02. Remix by [THE RETROSIC]
03. @QXT Mix by [DAS ICH]
04. Electronic Brain Remix by [ANALOGUE BRAIN]
05. No Compromise Remix by [BLUTENGEL]
06. Extended Version
07. Decimate Mix by [CUT.RATE.BOX]
08. Remix by [SOMAN]
09. Full Moon-Remix by [ROTERSAND]
10. Sandstorm-Remix by [LIGHTS OF EUPHORIA]
Доп. информация:
Exact Audio Copy V0.99 prebeta 3 from 28. July 2007
EAC extraction logfile from 5. March 2008, 19:30
[:SITD:] / Laughingstock
Used drive : MATSHITAUJ-840D Adapter: 1 ID: 0
Read mode : Secure
Utilize accurate stream : Yes
Defeat audio cache : Yes
Make use of C2 pointers : No
Read offset correction : 102
Overread into Lead-In and Lead-Out : No
Fill up missing offset samples with silence : Yes
Delete leading and trailing silent blocks : No
Null samples used in CRC calculations : Yes
Used interface : Installed external ASPI interface
Used output format : Internal WAV Routines
Sample format : 44.100 Hz; 16 Bit; Stereo
TOC of the extracted CD
Track | Start | Length | Start sector | End sector
---------------------------------------------------------
1 | 0:00.00 | 5:17.64 | 0 | 23838
2 | 5:17.64 | 5:17.28 | 23839 | 47641
3 | 10:35.17 | 4:57.26 | 47642 | 69942
4 | 15:32.43 | 5:47.39 | 69943 | 96006
5 | 21:20.07 | 6:20.31 | 96007 | 124537
6 | 27:40.38 | 7:19.46 | 124538 | 157508
7 | 35:00.09 | 5:02.49 | 157509 | 180207
8 | 40:02.58 | 4:55.36 | 180208 | 202368
9 | 44:58.19 | 4:40.25 | 202369 | 223393
10 | 49:38.44 | 5:26.37 | 223394 | 247880
Range status and errors
Selected range
Filename C:\Media\!New\[ SITD ] - Laughingstock.wav
Peak level 99.3 %
Range quality 100.0 %
Copy CRC 3B6A6CB1
Copy OK
No errors occurred
AccurateRip summary
Track 1 not present in database
Track 2 not present in database
Track 3 not present in database
Track 4 not present in database
Track 5 not present in database
Track 6 not present in database
Track 7 not present in database
Track 8 not present in database
Track 9 not present in database
Track 10 not present in database
None of the tracks are present in the AccurateRip database
End of status report
Правила, инструкции, FAQ!!!
Торрент  Добавлен [26 июн 2020, 20:03] Скачать торрент Магнет ссылка
Скачать торрент
[ Размер 16.99 КБ / Просмотров 9 ]

Статус
Проверен 
 
Размер  419.31 МБ
Приватный: Нет (DHT включён)
.torrent скачан  0
 


     Отправить личное сообщение
   
Страница 1 из 1
Показать сообщения за:  Поле сортировки  
Начать новую тему Ответить на тему


Сейчас этот форум просматривают: нет зарегистрированных пользователей и гости: 0


Вы не можете начинать темы
Вы не можете отвечать на сообщения
Вы не можете редактировать свои сообщения
Вы не можете удалять свои сообщения
Вы не можете добавлять вложения

Перейти:  
cron