Начать новую тему Ответить на тему
Статистика раздачи
Размер: 317.06 МБ | Добавлен: 26 июн 2020, 20:03 | Скачали: 0
Сидеров: 0  [0 байт/сек]    Личеров: 0  [0 байт/сек]
Пред. тема | След. тема 

Автор
Сообщение

СообщениеДобавлено: 26 июн 2020, 20:03 

Ответить с цитатой 

[:SITD:] - Kruezgang
Страна: Германия
Жанр: Industrial/EBM
Год выпуска: 2007
Формат: FLAC (image + .cue)
Битрейт аудио: lossless
Продолжительность: 42:12
Трэклист:
01 KREUZGANG | Single Version | 5:12
02 KREUZGANG | [ROTERSAND]’s Steinerized Rework | 4:52
03 ATONEMENT | 6:03
04 KREUZGANG | Dolorosa Version by [ANGELS & AGONY] | 6:24
05 KREUZGANG | Remix by [AGONOIZE] | 5:11
06 METAMORPHOSIS | 3:41
07 KREUZGANG | Bestie Mensch Remix by [PAINBASTARD] | 5:28
08 KREUZGANG | Laufwerk Remix by [DIORAMA feat. KLANGSTABIL & VA:SEE] | 5:22
Доп. информация:
Exact Audio Copy V0.99 prebeta 3 from 28. July 2007
EAC extraction logfile from 19. January 2008, 14:54
[:SITD:] / Kreuzgang
Used drive : MATSHITAUJ-840D Adapter: 1 ID: 0
Read mode : Secure
Utilize accurate stream : Yes
Defeat audio cache : Yes
Make use of C2 pointers : No
Read offset correction : 102
Overread into Lead-In and Lead-Out : No
Fill up missing offset samples with silence : Yes
Delete leading and trailing silent blocks : No
Null samples used in CRC calculations : Yes
Used interface : Installed external ASPI interface
Used output format : Internal WAV Routines
Sample format : 44.100 Hz; 16 Bit; Stereo
TOC of the extracted CD
Track | Start | Length | Start sector | End sector
---------------------------------------------------------
1 | 0:00.00 | 5:11.32 | 0 | 23356
2 | 5:11.32 | 4:51.51 | 23357 | 45232
3 | 10:03.08 | 6:03.24 | 45233 | 72481
4 | 16:06.32 | 6:24.04 | 72482 | 101285
5 | 22:30.36 | 5:10.44 | 101286 | 124579
6 | 27:41.05 | 3:41.17 | 124580 | 141171
7 | 31:22.22 | 5:27.70 | 141172 | 165766
8 | 36:50.17 | 5:21.58 | 165767 | 189899
Range status and errors
Selected range
Filename C:\Media\!New\[ SITD ] - Kreuzgang.wav
Peak level 97.1 %
Range quality 99.9 %
Copy CRC 641D661D
Copy OK
No errors occurred
AccurateRip summary
Track 1 not present in database
Track 2 not present in database
Track 3 not present in database
Track 4 not present in database
Track 5 not present in database
Track 6 not present in database
Track 7 not present in database
Track 8 not present in database
None of the tracks are present in the AccurateRip database
End of status report
------------------------------------------------------------
Exact Audio Copy V0.99 prebeta 3 from 28. July 2007
EAC extraction logfile from 19. January 2008, 15:24
[:SITD:] / Kreuzgang
Used drive : MATSHITAUJ-840D Adapter: 1 ID: 0
Read mode : Secure
Utilize accurate stream : Yes
Defeat audio cache : Yes
Make use of C2 pointers : No
Read offset correction : 102
Overread into Lead-In and Lead-Out : No
Fill up missing offset samples with silence : Yes
Delete leading and trailing silent blocks : No
Null samples used in CRC calculations : Yes
Used interface : Installed external ASPI interface
Gap handling : Not detected, thus appended to previous track
Used output format : User Defined Encoder
Selected bitrate : 320 kBit/s
Quality : High
Add ID3 tag : Yes
Command line compressor : C:\Progs\Exact Audio Copy\Codecs\lame.exe
Additional command line options : -m s -q 1 --vbr-new --preset extreme -k %s %d
TOC of the extracted CD
Track | Start | Length | Start sector | End sector
---------------------------------------------------------
1 | 0:00.00 | 5:11.32 | 0 | 23356
2 | 5:11.32 | 4:51.51 | 23357 | 45232
3 | 10:03.08 | 6:03.24 | 45233 | 72481
4 | 16:06.32 | 6:24.04 | 72482 | 101285
5 | 22:30.36 | 5:10.44 | 101286 | 124579
6 | 27:41.05 | 3:41.17 | 124580 | 141171
7 | 31:22.22 | 5:27.70 | 141172 | 165766
8 | 36:50.17 | 5:21.58 | 165767 | 189899
Track 1
Filename C:\Media\!New\01 - Kreuzgang ( single version ).wav
Peak level 97.1 %
Track quality 100.0 %
Copy CRC 27830071
Track not present in AccurateRip database
Copy OK
Track 2
Filename C:\Media\!New\02 - Kreuzgang ( remix by rotersand ).wav
Peak level 96.6 %
Track quality 100.0 %
Copy CRC 7A25D6DF
Track not present in AccurateRip database
Copy OK
Track 3
Filename C:\Media\!New\03 - Atonement.wav
Peak level 89.8 %
Track quality 100.0 %
Copy CRC F530C2B1
Track not present in AccurateRip database
Copy OK
Track 4
Filename C:\Media\!New\04 - Kreuzgang ( remix by angels & agony ).wav
Peak level 81.1 %
Track quality 100.0 %
Copy CRC CCFABCA4
Track not present in AccurateRip database
Copy OK
Track 5
Filename C:\Media\!New\05 - Kreuzgang ( remix by agonoize ).wav
Peak level 97.1 %
Track quality 100.0 %
Copy CRC E7ECB798
Track not present in AccurateRip database
Copy OK
Track 6
Filename C:\Media\!New\06 - Metamorphosis.wav
Peak level 89.5 %
Track quality 100.0 %
Copy CRC 3615AD9B
Track not present in AccurateRip database
Copy OK
Track 7
Filename C:\Media\!New\07 - Kreuzgang ( remix by painbastard ).wav
Peak level 86.4 %
Track quality 100.0 %
Copy CRC CFE6DCF3
Track not present in AccurateRip database
Copy OK
Track 8
Filename C:\Media\!New\08 - Kreuzgang ( remix by diorama ).wav
Peak level 94.1 %
Track quality 99.9 %
Copy CRC F0DC8952
Track not present in AccurateRip database
Copy OK
None of the tracks are present in the AccurateRip database
No errors occurred
End of status report
https://rutracker.org/forum/viewtopic.php?t=615722
Правила, инструкции, FAQ!!!
Торрент  Добавлен [26 июн 2020, 20:03] Скачать торрент Магнет ссылка
Скачать торрент
[ Размер 12.99 КБ / Просмотров 8 ]

Статус
Проверен 
 
Размер  317.06 МБ
Приватный: Нет (DHT включён)
.torrent скачан  0
 


     Отправить личное сообщение
   
Страница 1 из 1
Показать сообщения за:  Поле сортировки  
Начать новую тему Ответить на тему


Сейчас этот форум просматривают: нет зарегистрированных пользователей и гости: 0


Вы не можете начинать темы
Вы не можете отвечать на сообщения
Вы не можете редактировать свои сообщения
Вы не можете удалять свои сообщения
Вы не можете добавлять вложения

Перейти:  
cron