Начать новую тему Ответить на тему
Статистика раздачи
Размер: 412.69 МБ | Добавлен: 26 июн 2020, 17:42 | Скачали: 0
Сидеров: 0  [0 байт/сек]    Личеров: 0  [0 байт/сек]
Пред. тема | След. тема 

Автор
Сообщение

СообщениеДобавлено: 26 июн 2020, 17:42 

Ответить с цитатой 

Iron Lung Corp / Ditch the Attitude, Pally
Жанр: Industrial/EBM
Носитель: CD
Страна-производитель диска (релиза): US
Год издания: 2002
Издатель (лейбл): Underground, Inc.
Номер по каталогу: UIN1047
Страна исполнителя (группы): US
Аудиокодек: FLAC (*.flac)
Тип рипа: tracks+.cue
Битрейт аудио: lossless
Продолжительность: 01:00:35
Источник (релизер): Usenet
Наличие сканов в содержимом раздачи: нет
Треклист:
1 How We Rock It
2 Soulsteppa
3 Canine Strap
4 I'm A Superstar
5 Amputee Non Gratis
6 Digital Genius
7 One In The Clip
8 Cool Life
9 Rock Star Camp
10 Piehole
11 I'm Losing Me
12 Liquid In The Lungs
13 Nutpuncher
14 I Love Heavy Metal
Код:
Exact Audio Copy V0.99 prebeta 5 from 4. May 2009
EAC extraction logfile from 20. February 2010, 22:39
Iron Lung Corp / Ditch the Attitude, Pally
Used drive  : ATAPI   iHAS124   A   Adapter: 2  ID: 0
Read mode               : Secure
Utilize accurate stream : Yes
Defeat audio cache      : Yes
Make use of C2 pointers : No
Read offset correction                      : 6
Overread into Lead-In and Lead-Out          : No
Fill up missing offset samples with silence : Yes
Delete leading and trailing silent blocks   : No
Null samples used in CRC calculations       : Yes
Used interface                              : Native Win32 interface for Win NT & 2000
Gap handling                                : Appended to previous track
Used output format              : User Defined Encoder
Selected bitrate                : 768 kBit/s
Quality                         : High
Add ID3 tag                     : No
Command line compressor         : C:\Program Files (x86)\Exact Audio Copy\FLAC\FLAC.EXE
Additional command line options : -V -8 -T "artist=%a" -T "title=%t" -T "album=%g" -T "date=%y" -T "tracknumber=%n" -T "genre=%m" %s
TOC of the extracted CD
     Track |   Start  |  Length  | Start sector | End sector
    ---------------------------------------------------------
        1  |  0:00.00 |  4:56.59 |         0    |    22258
        2  |  4:56.59 |  4:33.22 |     22259    |    42755
        3  |  9:30.06 |  3:46.71 |     42756    |    59776
        4  | 13:17.02 |  3:42.65 |     59777    |    76491
        5  | 16:59.67 |  6:12.37 |     76492    |   104428
        6  | 23:12.29 |  1:49.65 |    104429    |   112668
        7  | 25:02.19 |  3:41.40 |    112669    |   129283
        8  | 28:43.59 |  3:30.29 |    129284    |   145062
        9  | 32:14.13 |  4:57.74 |    145063    |   167411
       10  | 37:12.12 |  3:39.28 |    167412    |   183864
       11  | 40:51.40 |  6:29.38 |    183865    |   213077
       12  | 47:21.03 |  3:23.05 |    213078    |   228307
       13  | 50:44.08 |  6:42.30 |    228308    |   258487
       14  | 57:26.38 |  3:08.41 |    258488    |   272628
Track  1
     Filename C:\EAC RIPS\Iron Lung Corp - 2002 - Ditch the Attitude, Pally [FLAC]\01 - How We Rock It.wav
     Pre-gap length  0:00:02.00
     Peak level 100.0 %
     Track quality 100.0 %
     Test CRC 2A1B9F66
     Copy CRC 2A1B9F66
     Accurately ripped (confidence 9)  [0ADE2521]
     Copy OK
Track  2
     Filename C:\EAC RIPS\Iron Lung Corp - 2002 - Ditch the Attitude, Pally [FLAC]\02 - Soulsteppa.wav
     Peak level 100.0 %
     Track quality 99.9 %
     Test CRC 0285189E
     Copy CRC 0285189E
     Accurately ripped (confidence 9)  [CB9F81E8]
     Copy OK
Track  3
     Filename C:\EAC RIPS\Iron Lung Corp - 2002 - Ditch the Attitude, Pally [FLAC]\03 - Caninie Strap.wav
     Peak level 100.0 %
     Track quality 100.0 %
     Test CRC 608F87E0
     Copy CRC 608F87E0
     Accurately ripped (confidence 9)  [9D17E8A0]
     Copy OK
Track  4
     Filename C:\EAC RIPS\Iron Lung Corp - 2002 - Ditch the Attitude, Pally [FLAC]\04 - I'm a Superstar.wav
     Peak level 100.0 %
     Track quality 100.0 %
     Test CRC E812DDF4
     Copy CRC E812DDF4
     Accurately ripped (confidence 9)  [2EFD4F46]
     Copy OK
Track  5
     Filename C:\EAC RIPS\Iron Lung Corp - 2002 - Ditch the Attitude, Pally [FLAC]\05 - Amputee Non Gratis.wav
     Peak level 100.0 %
     Track quality 100.0 %
     Test CRC 4CBF9234
     Copy CRC 4CBF9234
     Accurately ripped (confidence 9)  [ED8488C7]
     Copy OK
Track  6
     Filename C:\EAC RIPS\Iron Lung Corp - 2002 - Ditch the Attitude, Pally [FLAC]\06 - Digital Genius!.wav
     Peak level 100.0 %
     Track quality 100.0 %
     Test CRC 46F119FE
     Copy CRC 46F119FE
     Accurately ripped (confidence 9)  [D015BF87]
     Copy OK
Track  7
     Filename C:\EAC RIPS\Iron Lung Corp - 2002 - Ditch the Attitude, Pally [FLAC]\07 - One in the Clip.wav
     Peak level 100.0 %
     Track quality 100.0 %
     Test CRC E7AA7120
     Copy CRC E7AA7120
     Accurately ripped (confidence 9)  [DDA05319]
     Copy OK
Track  8
     Filename C:\EAC RIPS\Iron Lung Corp - 2002 - Ditch the Attitude, Pally [FLAC]\08 - Cool Life.wav
     Peak level 100.0 %
     Track quality 100.0 %
     Test CRC D907D7CD
     Copy CRC D907D7CD
     Accurately ripped (confidence 9)  [7381365E]
     Copy OK
Track  9
     Filename C:\EAC RIPS\Iron Lung Corp - 2002 - Ditch the Attitude, Pally [FLAC]\09 - Rock Star Camp.wav
     Peak level 100.0 %
     Track quality 100.0 %
     Test CRC 0C392D09
     Copy CRC 0C392D09
     Accurately ripped (confidence 9)  [29CBD5EF]
     Copy OK
Track 10
     Filename C:\EAC RIPS\Iron Lung Corp - 2002 - Ditch the Attitude, Pally [FLAC]\10 - Piehole.wav
     Peak level 100.0 %
     Track quality 100.0 %
     Test CRC 3A4C79CE
     Copy CRC 3A4C79CE
     Accurately ripped (confidence 9)  [3B28D744]
     Copy OK
Track 11
     Filename C:\EAC RIPS\Iron Lung Corp - 2002 - Ditch the Attitude, Pally [FLAC]\11 - I'm Losing Me.wav
     Peak level 100.0 %
     Track quality 99.9 %
     Test CRC 16ADAE9F
     Copy CRC 16ADAE9F
     Accurately ripped (confidence 9)  [DD1F3226]
     Copy OK
Track 12
     Filename C:\EAC RIPS\Iron Lung Corp - 2002 - Ditch the Attitude, Pally [FLAC]\12 - Liquid in the Lungs.wav
     Peak level 100.0 %
     Track quality 100.0 %
     Test CRC 828D360D
     Copy CRC 828D360D
     Accurately ripped (confidence 9)  [B145E68C]
     Copy OK
Track 13
     Filename C:\EAC RIPS\Iron Lung Corp - 2002 - Ditch the Attitude, Pally [FLAC]\13 - Nutpuncher.wav
     Peak level 100.0 %
     Track quality 100.0 %
     Test CRC E3C0D33D
     Copy CRC E3C0D33D
     Accurately ripped (confidence 9)  [F2EB7FCB]
     Copy OK
Track 14
     Filename C:\EAC RIPS\Iron Lung Corp - 2002 - Ditch the Attitude, Pally [FLAC]\14 - I Love Heavy Metal.wav
     Peak level 100.0 %
     Track quality 100.0 %
     Test CRC 60785FDE
     Copy CRC 60785FDE
     Accurately ripped (confidence 9)  [5729627F]
     Copy OK
All tracks accurately ripped
No errors occurred
End of status report
Код:
REM GENRE Metal
REM DATE 2002
REM DISCID C70E330E
REM COMMENT "ExactAudioCopy v0.99pb5"
FILE "01 - How We Rock It.wav" WAVE
  TRACK 01 AUDIO
    INDEX 01 00:00:00
FILE "02 - Soulsteppa.wav" WAVE
  TRACK 02 AUDIO
    INDEX 01 00:00:00
FILE "03 - Caninie Strap.wav" WAVE
  TRACK 03 AUDIO
    INDEX 01 00:00:00
FILE "04 - I'm a Superstar.wav" WAVE
  TRACK 04 AUDIO
    INDEX 01 00:00:00
FILE "05 - Amputee Non Gratis.wav" WAVE
  TRACK 05 AUDIO
    INDEX 01 00:00:00
FILE "06 - Digital Genius!.wav" WAVE
  TRACK 06 AUDIO
    INDEX 01 00:00:00
FILE "07 - One in the Clip.wav" WAVE
  TRACK 07 AUDIO
    INDEX 01 00:00:00
FILE "08 - Cool Life.wav" WAVE
  TRACK 08 AUDIO
    INDEX 01 00:00:00
FILE "09 - Rock Star Camp.wav" WAVE
  TRACK 09 AUDIO
    INDEX 01 00:00:00
FILE "10 - Piehole.wav" WAVE
  TRACK 10 AUDIO
    INDEX 01 00:00:00
FILE "11 - I'm Losing Me.wav" WAVE
  TRACK 11 AUDIO
    INDEX 01 00:00:00
FILE "12 - Liquid in the Lungs.wav" WAVE
  TRACK 12 AUDIO
    INDEX 01 00:00:00
FILE "13 - Nutpuncher.wav" WAVE
  TRACK 13 AUDIO
    INDEX 01 00:00:00
FILE "14 - I Love Heavy Metal.wav" WAVE
  TRACK 14 AUDIO
    INDEX 01 00:00:00
Торрент файл перезалит по техническим причинам
Правила, инструкции, FAQ!!!
Торрент  Добавлен [26 июн 2020, 17:42] Скачать торрент Магнет ссылка
Скачать торрент
[ Размер 17.62 КБ / Просмотров 10 ]

Статус
Проверен 
 
Размер  412.69 МБ
Приватный: Нет (DHT включён)
.torrent скачан  0
 


     Отправить личное сообщение
   
Страница 1 из 1
Показать сообщения за:  Поле сортировки  
Начать новую тему Ответить на тему


Сейчас этот форум просматривают: нет зарегистрированных пользователей и гости: 0


Вы не можете начинать темы
Вы не можете отвечать на сообщения
Вы не можете редактировать свои сообщения
Вы не можете удалять свои сообщения
Вы не можете добавлять вложения

Перейти:  
cron